Торрент файл
скачать торрент магнет ссылка Добавлен: 19 дек 2011, 22:55
Размер: 23.01 ГБ
Сидеров: 16
Личеров: 11
Автор

СообщениеДобавлено: 19 дек 2011, 22:55 

Не в сети
Супермодератор
Аватара пользователя
Дата регистрации:
11 апр 2010, 18:10
Спасибо: 5995 / 7
Сообщения: 56686
Тюдоры, 4 сезон 1-10 серии из 10 / The Tudors

Перевод: Профессиональный (многоголосый, закадровый) «SET Russia»
Субтитры: Русские (названия эпизодов), русские (полные)
Формат: BDRip, MKV, H.264/AVC, AC3
Страна: США, Канада, Ирландия
Режиссер: Киаран Доннелли, Джереми Подесва, Дирбла Уолш и др.
Жанр: драма, мелодрама, военный, история
Всего серий: 10
Продолжительность: 10 х 00:52
Год выпуска: 2010

В ролях: Джонатан Риз Майерс, Мария Дойл Кеннеди, Натали Дормер, Аннабелль Уоллис, Джосс Стоун, Тамзин Мерчант, Джоэли Ричардсон, Генри Кэвелл, Макс Браун, Сара Болжер, Ребека Уэйнрайт, Джоанн Кинг, Эмма Гамильтон, Саймон Уорд, Дэвид О’Хара, Торранс Кумбс и др.

Описание: Англия, 1540—1547 гг. В заключительном сезоне акцент сделан на развитии отношений короля с его последними жёнами — Кэтрин Говард и Катариной Парр, а также показана война Англии с Францией, в частности подробно проиллюстрирована осада Булони. В целом описан заключительный период жизни Генриха VIII Тюдора.

Рейтинг:

Видео: 1280х720 (16:9), H.264, MPEG4 AVC, High@L4.1 , 23,976 fps, ~5750 kbps, 0.260 bit/pixel
Аудио #1: 48 kHz, AC3 Dolby Digital, 2/0 (L, R) ch, 192 kbps avg [Профессиональный (многоголосый, закадровый)]
Аудио #2: Английский: 48 kHz, AC3 Dolby Digital, 3/2 (L C R, l, r) + LFE ch, 448 kbps avg [Оригинал]


Общее
Уникальный идентификатор: 243518587687492274463045875324168921623 (0xB733F958573C0AEC94071EC20A276217)
Полное имя: E:\the_tudors_s04_[tfile.ru]\the_tudors_s04e01_[tfile.ru].mkv
Формат: Matroska
Версия формата: Version 1
Размер файла: 2,35 Гбайт
Продолжительность: 52 м.
Общий поток: 6393 Кбит/сек
Название фильма: The Tudors.s04e01 Moment of Nostalgia / Момент ностальгии
Дата кодирования: UTC 2011-07-23 06:14:58
Программа кодирования: mkvmerge v2.4.1 ('Use Me') built on Dec5 2008 18:30:05
Библиотека кодирования: libebml v0.7.7 + libmatroska v0.8.1

Видео
Идентификатор: 1
Формат: AVC
Формат/Информация: Advanced Video Codec
Профиль формата: High@L4.1
Параметр CABAC формата: Да
Параметр ReFrames формата: 9 кадров
Идентификатор кодека: V_MPEG4/ISO/AVC
Продолжительность: 52 м.
Битрейт: 5750 Кбит/сек
Ширина: 1280 пикс.
Высота: 720 пикс.
Соотношение сторон: 16:9
Частота кадров: 23,976 кадр/сек
Цветовое пространство: YUV
Подвыборка цветности: 4:2:0
Битовая глубина: 8 бит
Тип развёртки: Прогрессивная
Бит/(Пиксели*Кадры): 0.260
Размер потока: 2,07 Гбайт (88%)
Библиотека кодирования: x264 core 114 r1900 60ef1f8
Настройки программы: cabac=1 / ref=9 / deblock=1:-3:-3 / analyse=0x3:0x113 / me=umh / subme=9 / psy=1 / psy_rd=1.10:0.00 / mixed_ref=1 / me_range=32 / chroma_me=1 / trellis=1 / 8x8dct=1 / cqm=0 / deadzone=21,11 / fast_pskip=0 / chroma_qp_offset=-2 / threads=9 / sliced_threads=0 / nr=0 / decimate=0 / interlaced=0 / constrained_intra=0 / bframes=6 / b_pyramid=2 / b_adapt=2 / b_bias=0 / direct=1 / weightb=1 / open_gop=0 / weightp=2 / keyint=250 / keyint_min=23 / scenecut=40 / intra_refresh=0 / rc_lookahead=40 / rc=2pass / mbtree=1 / bitrate=5750 / ratetol=1.0 / qcomp=0.60 / qpmin=0 / qpmax=69 / qpstep=4 / cplxblur=20.0 / qblur=0.5 / ip_ratio=1.40 / aq=1:0.80

Аудио #1
Идентификатор: 2
Формат: AC-3
Формат/Информация: Audio Coding 3
Расширение режима: CM (complete main)
Идентификатор кодека: A_AC3
Продолжительность: 52 м.
Вид битрейта: Постоянный
Битрейт: 192 Кбит/сек
Каналы: 2 канала
Расположение каналов: Front: L R
Частота: 48,0 КГц
Битовая глубина: 16 бит
Метод сжатия: С потерями
Размер потока: 72,4 Мбайт (3%)
Язык: Russian

Аудио #2
Идентификатор: 3
Формат: AC-3
Формат/Информация: Audio Coding 3
Расширение режима: CM (complete main)
Идентификатор кодека: A_AC3
Продолжительность: 52 м.
Вид битрейта: Постоянный
Битрейт: 448 Кбит/сек
Каналы: 6 каналов
Расположение каналов: Front: L C R, Side: L R, LFE
Частота: 48,0 КГц
Битовая глубина: 16 бит
Метод сжатия: С потерями
Размер потока: 169 Мбайт (7%)
Язык: English

Текст #1
Идентификатор: 4
Формат: ASS
Идентификатор кодека: S_TEXT/ASS
Идентификатор кодека/Информация: Advanced Sub Station Alpha
Метод сжатия: Без потерь
Язык: Russian

Текст #2
Идентификатор: 5
Формат: ASS
Идентификатор кодека: S_TEXT/ASS
Идентификатор кодека/Информация: Advanced Sub Station Alpha
Метод сжатия: Без потерь
Язык: Russian













Поделиться:



Вернуться к началу
 Профиль Отправить личное сообщение  
 
   Похожие торренты   Автор   Торрент   Размер 
В этой теме нет новых непрочитанных сообщений. Наша эра: Продолжение Библии / A.D. The Bible Continues [S01] (Киаран Доннелли, Тони Митчелл, Роб Эванс, ...) [драма, 2015] WEB-DL 720p [BaibaKo]

Dracon

18 | 24

17.3 ГБ

В этой теме нет новых непрочитанных сообщений. Викинги / Vikings (Сезон 4, Серия 7-14 из 20) (Йохан Ренк, Киаран Доннелли) [2016 , Историческая драма, приключения, боевик, викинги , WEB-DLRip 1080p] [AlexFilm , LostFilm , OMSKBIRD , NewStudio , BaibaKo, English] + [Subs Rus ,

Враг Нароода

В этой теме нет новых непрочитанных сообщений. Наша эра: Продолжение Библии / A.D. The Bible Continues [S01] (Киаран Доннелли, Тони Митчелл, Роб Эванс, ...) [драма, 2015] WEB-DLRip [BaibaKo]

Dracon

49 | 12

6.88 ГБ

В этой теме нет новых непрочитанных сообщений. Наша эра: Продолжение Библии / A.D. The Bible Continues [S01] (Киаран Доннелли, Тони Митчелл, Роб Эванс, ...) [драма, 2015] WEB-DL 1080p [BaibaKo]

Dracon

7 | 3

21.24 ГБ

В этой теме нет новых непрочитанных сообщений. Война и Мир / War & Peace (Сезон 1, Серия 1-6 из 6) (Том Харпер) [2016 , Драма, мелодрама, военный, история, экранизация , BDRip 1080p] [MVO] [LostFilm , English ] [DD5.1] + [Subs Rus , Eng]

Враг Нароода

0 | 0

25.85 ГБ

В этой теме нет новых непрочитанных сообщений. Счастливого Рождества / Joyeux Noël / Joyeux Noel / Merry Christmas [драма, мелодрама, военный, история, музыка, 2005] BDRip 720p, Mvo+Dvo+Sub

salma3

14 | 3

4.07 ГБ

В этой теме нет новых непрочитанных сообщений. Они сражались за Родину [драма, военный, история, 1975] BDRip 720p

salma3

50 | 7

7.76 ГБ


Начать новую тему Ответить на тему  [ 1 сообщение ] 




Для Мосгорсуда, Роскомнадзора и рекламодателей:: mosgorsud-torrent[собачка]yandex.ru
cron