Торрент файл
скачать торрент магнет ссылка Добавлен: 19 дек 2011, 22:44
Размер: 1.84 ГБ
Сидеров: 0
Личеров: 5
Автор

СообщениеДобавлено: 19 дек 2011, 22:44 

Не в сети
Супермодератор
Аватара пользователя
Дата регистрации:
11 апр 2010, 18:10
Спасибо: 5801 / 7
Сообщения: 56779
Торчвуд: День Чуда, 4 Сезон 5 Серия / Torchwood: Miracle Day


Категории жизни / The Categories of Life

Перевод: Профессиональный (Многоголосый, закадровый) Субтитры: Отсутствуют
Формат: HDTV, MKV, H.264/AVC, AC3
Страна: США, Великобритания
Режиссер: Энди Годдар, Эшли Вэй, Эрос Лин
Жанр: Фантастика, триллер, драма
Всего серий: 10
Продолжительность: 00:53:00
Год выпуска: 2011

В ролях: Джон Барроумен / John Barrowman, Ив Майлз / Eve Myles, Мехи Файфер / Mekhi Phifer, Алекса Хэвинс / Alexa Havins, Билл Пуллман / Bill Pullman, Лорен Эмброуз / Lauren Ambrose, Арлин Тур / Arlene Tur, Кай Оуэн / Kai Owen

Описание: В один прекрасный день никто не умер. Во всем мире НИКТО не умер. И потом на следующий день, и на следующий, и еще через день, люди продолжают стареть - они страдают и болеют, но они никогда не умирают. И в результате численность населения резко повышается, за одну ночь. На такое количество человек не хватит ресурсов. Говорят, что через четыре месяца человеческая раса не сможет существовать. И это не может быть естественным событием - кто-то должен за этим стоять. Это гонка на время и агент ЦРУ Рекс Мэтисон начинает расследование глобального заговора. Ответы погребены под руинами старого секретного Британского института. В то время как Рекс продолжает выспрашивать: "Что такое Торчвуд?", он оказывается втянутым в мир приключений и опасности изменить саму сущность человека. Навсегда..

Рейтинг на:
[/field]

Видео: 1280x720 (16:9), MPEG4/ISO/AVC, High@L4.1 , 23,976 fps, 4111 Kbps, 0.186 bit/pixel
Аудио RUS: 48.0 kHz, AC3 Dolby Digital, 6 (L,C,R,l,r) + LFE ch, ~384.00 kbps avg
Аудио ENG: 48.0 kHz, AC3 Dolby Digital, 6 (L,C,R,l,r) + LFE ch, ~384.00 kbps avg

Доп. информация:

Релиз:


Над релизом работали:
Перевод: Татьяна Saavick
Озвучка: Блонди Скорпио, Anna_Smile, Татьяна Оболевич, Тринитрон, Styx и Алексей Кузнецов
Сведение: herto

Общее
Уникальный идентификатор: 245853256289772504187727420747918131696 (0xB8F59D64EEBA862780E02257EEF4C1F0)
Полное имя: C:\Documents and Settings\Admin\Рабочий стол\720р\Torchwood_S04E05_[tfile.ru].mkv
Формат: Matroska
Размер файла: 1,84 Гбайт
Продолжительность: 53 м.
Общий поток: 4978 Кбит/сек
Название фильма: BaibaKo.tv presents - Торчвуд: День чуда 4x05 Категории жизни
Дата кодирования: UTC 2011-08-11 02:54:07
Программа кодирования: mkvmerge v4.8.0 ('I Got The...') сборка от May 24 2011 03:12:58
Библиотека кодирования: libebml v1.2.0 + libmatroska v1.1.0

Видео
Идентификатор: 1
Формат: AVC
Формат/Информация: Advanced Video Codec
Профиль формата: High@L4.1
Параметр CABAC формата: Да
Параметр ReFrames формата: 8 кадров
Идентификатор кодека: V_MPEG4/ISO/AVC
Продолжительность: 53 м.
Битрейт: 4111 Кбит/сек
Ширина: 1280 пикс.
Высота: 720 пикс.
Соотношение сторон: 16:9
Частота кадров: 23,976 кадр/сек
Цветовое пространство: YUV
Подвыборка цветности: 4:2:0
Битовая глубина: 8 бит
Тип развёртки: Прогрессивная
Бит/(Пиксели*Кадры): 0.186
Размер потока: 1,52 Гбайт (83%)
Библиотека кодирования: x264 core 116 r2044 392e762
Настройки программы: cabac=1 / ref=8 / deblock=1:2:2 / analyse=0x3:0x113 / me=umh / subme=9 / psy=1 / psy_rd=1.00:0.00 / mixed_ref=1 / me_range=24 / chroma_me=1 / trellis=1 / 8x8dct=1 / cqm=0 / deadzone=21,11 / fast_pskip=0 / chroma_qp_offset=-2 / threads=12 / sliced_threads=0 / nr=0 / decimate=1 / interlaced=0 / bluray_compat=0 / constrained_intra=0 / bframes=5 / b_pyramid=2 / b_adapt=1 / b_bias=0 / direct=1 / weightb=1 / open_gop=0 / weightp=2 / keyint=250 / keyint_min=23 / scenecut=40 / intra_refresh=0 / rc_lookahead=40 / rc=crf / mbtree=1 / crf=18.0 / qcomp=0.60 / qpmin=0 / qpmax=69 / qpstep=4 / ip_ratio=1.40 / aq=1:1.00
Язык: English

Аудио #1
Идентификатор: 2
Формат: AC-3
Формат/Информация: Audio Coding 3
Расширение режима: CM (complete main)
Идентификатор кодека: A_AC3
Продолжительность: 53 м.
Вид битрейта: Постоянный
Битрейт: 384 Кбит/сек
Каналы: 6 каналов
Расположение каналов: Front: L C R, Side: L R, LFE
Частота: 48,0 КГц
Битовая глубина: 16 бит
Метод сжатия: С потерями
Размер потока: 146 Мбайт (8%)
Заголовок: Rus BaibaKo.tv DD5.1
Язык: Russian

Аудио #2
Идентификатор: 3
Формат: AC-3
Формат/Информация: Audio Coding 3
Расширение режима: CM (complete main)
Идентификатор кодека: A_AC3
Продолжительность: 53 м.
Вид битрейта: Постоянный
Битрейт: 384 Кбит/сек
Каналы: 6 каналов
Расположение каналов: Front: L C R, Side: L R, LFE
Частота: 48,0 КГц
Битовая глубина: 16 бит
Метод сжатия: С потерями
Размер потока: 146 Мбайт (8%)
Заголовок: Eng DD5.1
Язык: English

*

720р
1 серия http://tfile.ru/forum/viewtopic.php?t=462826
2 серия http://tfile.ru/forum/viewtopic.php?t=464631
3 серия http://tfile.ru/forum/viewtopic.php?t=466234
4 серияhttp://tfile.ru/forum/viewtopic.php?t=467688
*-Обновляемая раздача








Поделиться:




реклама партнёра


Вернуться к началу
 Профиль Отправить личное сообщение  
 
   Похожие торренты   Автор   Торрент   Размер 
В этой теме нет новых непрочитанных сообщений. Торчвуд / Охотники за чужими / Torchwood / 1-4 сезоны 1-41 серии из 41 [фантастика, триллер, боевик, детектив, 2006-2011] DVDRip / BDRip, Mvo [Sci-Fi]

salma3

55 | 51

18.4 ГБ

В этой теме нет новых непрочитанных сообщений. Аббатство Даунтон / Downton Abbey [s05] (Брайан Персивал, Энди Годдар, Брайан Келли и др.)[2014, драма, исторический, WEB-DLRip | BaibaKo]

Nickolas3435

171 | 82

5.83 ГБ

В этой теме нет новых непрочитанных сообщений. Аббатство Даунтон / Downton Abbey [06х01-08 из 08] (Брайан Персивал, Энди Годдар, Брайан Келли) [2015, драма, исторический, WEB-DLRip | BaibaKo]

Dracon

60 | 54

5.29 ГБ

В этой теме нет новых непрочитанных сообщений. Аббатство Даунтон / Downton Abbey [06х01-07 из 08] (Брайан Персивал, Энди Годдар, Брайан Келли) [2015, драма, исторический, WEB-DLRip | BaibaKo]

Nickolas3434

499 | 214

4.39 ГБ

В этой теме нет новых непрочитанных сообщений. Аббатство Даунтон / Downton Abbey [06х01-08 из 08] (Брайан Персивал, Энди Годдар, Брайан Келли) [2015, драма, исторический, WEB-DL 720p | BaibaKo]

Dracon

28 | 21

13.55 ГБ

В этой теме нет новых непрочитанных сообщений. Аббатство Даунтон / Downton Abbey [06х01-07 из 08] (Брайан Персивал, Энди Годдар, Брайан Келли) [2015, драма, исторический, WEB-DL 720p | BaibaKo]

Nickolas3434

171 | 129

11.22 ГБ

В этой теме нет новых непрочитанных сообщений. Ходячие мертвецы / The Walking Dead [05x01-16 из 16] [Ужасы, триллер, драма, фантастика, 2014] WEB-DL 720р, Mvo [BaibaKo]

Dracon

3 | 11

23.86 ГБ


Начать новую тему Ответить на тему  [ 1 сообщение ] 




Для Мосгорсуда, Роскомнадзора и рекламодателей:: mosgorsud-torrent[собачка]yandex.ru