Торрент файл
скачать торрент магнет ссылка Добавлен: 19 дек 2011, 22:42
Размер: 10.97 ГБ
Сидеров: 11
Личеров: 6
Автор

СообщениеДобавлено: 19 дек 2011, 22:42 

Не в сети
Супермодератор
Аватара пользователя
Дата регистрации:
11 апр 2010, 18:10
Спасибо: 5799 / 7
Сообщения: 56779
Клан Кеннеди, 1 Сезон 1-8 серии / The Kennedys


Перевод: Профессиональный (многоголосый, закадровый), cубтитры: отсутствуют
Формат: HDTV, MKV, H.264/AVC, AC3
Страна: США, Канада
Режиссер: Джон Кассар
Жанр: Драма, исторический
Всего серий: 8
Продолжительность: 8 х 00:44
Год выпуска: 2011
В ролях: Грег Киннер, Бэрри Пеппер, Кэти Холмс, Том Уилкинсон, Ава Престон, Диана Хардкэсл, Джэйк Бил, Robbin MacDonald, Элиза Престон, Серж Уд
Описание: История легендарнейшего политического клана Кеннеди, рассказанная на манер «Крестного отца»: эгоцентричный и амбициозный отец-манипулятор, ловко управляющий жизнями своих сыновей, заставляет их поступать в соответствии со своими капризами. Личность творит историю; зритель увидит все своими глазами, будто находился на верхних этажах Белого Дома.

Рейтинг на IMDB:

Видео: 1280х720, (16/9), 23,976 fps, V_MPEG4/ISO/AVC, High@L3.1, ~4041 kbps avg, 0.183 bit/pixel
Аудио: 44.1 kHz, AC3 Dolby Digital, 2/0 (L,R) ch, ~384 kbps

Доп. информация: Релиз:

Озвучка: Студия"LostFilm"

Сценарий: Джоэл Сернау, Стивен Кроних
Продюсер: Дэвид Маккиллоп, Дирк Хугстра, Джонатан Кох, Кристина Шиптон, Нэнси Дюбюк
Оператор: Дэвид Мокснесс









Общее
Уникальный идентификатор: 251829821440693498063144448592531531724 (0xBD74A8CE74206E178E171CA0E001A7CC)
Полное имя: E:\Фильмы\The Kennedys_01_[tfile.ru]\The_Kennedys_s01_e01_[tfile.ru].mkv
Формат: Matroska
Размер файла: 1,35 Гбайт
Продолжительность: 43 м.
Общий поток: 4428 Кбит/сек
Дата кодирования: UTC 2011-06-22 17:05:41
Программа кодирования: mkvmerge v3.2.0 ('Beginnings') built on Feb 12 2010 16:46:17
Библиотека кодирования: libebml v0.7.9 + libmatroska v0.8.1

Видео
Идентификатор: 1
Формат: AVC
Формат/Информация: Advanced Video Codec
Профиль формата: High@L3.1
Параметр CABAC формата: Да
Параметр ReFrames формата: 4 кадры
Параметры GOP формата: M=2, N=4
Идентификатор кодека: V_MPEG4/ISO/AVC
Продолжительность: 43 м.
Битрейт: 4041 Кбит/сек
Ширина: 1280 пикс.
Высота: 720 пикс.
Соотношение сторон: 16:9
Частота кадров: 23,976 кадр/сек
Цветовое пространство: YUV
Подвыборка цветности: 4:2:0
Битовая глубина: 8 бит
Тип развёртки: Прогрессивная
Бит/(Пиксели*Кадры): 0.183
Размер потока: 1,21 Гбайт (89%)
Библиотека кодирования: x264 core 107 r1745 4785e8e
Настройки программы: cabac=1 / ref=3 / deblock=1:0:0 / analyse=0x3:0x113 / me=hex / subme=7 / psy=1 / psy_rd=1.00:0.00 / mixed_ref=1 / me_range=16 / chroma_me=1 / trellis=1 / 8x8dct=1 / cqm=0 / deadzone=21,11 / fast_pskip=1 / chroma_qp_offset=-2 / threads=4 / sliced_threads=0 / nr=0 / decimate=1 / interlaced=0 / constrained_intra=0 / bframes=3 / b_pyramid=2 / b_adapt=1 / b_bias=0 / direct=1 / weightb=1 / open_gop=0 / weightp=2 / keyint=250 / keyint_min=25 / scenecut=40 / intra_refresh=0 / rc_lookahead=40 / rc=2pass / mbtree=1 / bitrate=4041 / ratetol=1.0 / qcomp=0.60 / qpmin=10 / qpmax=51 / qpstep=4 / cplxblur=20.0 / qblur=0.5 / ip_ratio=1.40 / aq=1:1.00

Аудио
Идентификатор: 2
Формат: AC-3
Формат/Информация: Audio Coding 3
Расширение режима: CM (complete main)
Идентификатор кодека: A_AC3
Продолжительность: 43 м.
Вид битрейта: Постоянный
Битрейт: 384 Кбит/сек
Канал(ы): 2 канала(ов)
Расположение каналов: Front: L R
Частота: 44,1 КГц
Битовая глубина: 16 бит
Метод сжатия: С потерями
Размер потока: 120 Мбайт (9%)



Поделиться:




реклама партнёра


Вернуться к началу
 Профиль Отправить личное сообщение  
 
   Похожие торренты   Автор   Торрент   Размер 
В этой теме нет новых непрочитанных сообщений. Революция / Revolution (Стив Бойум, Джон Фавро) (Сезон 1-2, Серии 1-42 из 42) [2012-2014, Фантастика , Драма , WEBDLRip-AVC 720р] [DD5.1] [MVO] [Rumedia+LostFilm]

Nikolai.Baranov

0 | 2

43.76 ГБ

В этой теме нет новых непрочитанных сообщений. Континуум / Continuum [S03] (Пэт Уильямс, Джон Кассар) [2014, фантастика, триллер, WEB-DLRip | LostFilm]

Nickolas3435

395 | 188

5.84 ГБ

В этой теме нет новых непрочитанных сообщений. Континуум / Continuum [03х01-12 из 13] (Пэт Уильямс, Джон Кассар) [2014, фантастика, триллер, WEB-DLRip | LostFilm]

Nickolas3435

65 | 68

5.41 ГБ

В этой теме нет новых непрочитанных сообщений. Континуум / Continuum [04x01-04 из 06] (Пэт Уильямс, Джон Кассар) [Фантастика, триллер, 2015] WEB-DLRip [LostFilm]

Dracon

20 | 9

2.2 ГБ

В этой теме нет новых непрочитанных сообщений. Чужой среди своих / Родина / Homeland (Сезон 2-4, Серии 1-28 из 36) [2012-2014, Триллер, драма, криминал, детектив , WEBDLRip-AVC 720р] [MVO] (LostFilm)

Враг Нароода

В этой теме нет новых непрочитанных сообщений. Революция / Revolution [s1-s2x1-42 из 42] (Чарльз Бисон, Стив Бойум, Джон Кассар) [2012-2014, фантастика, боевик, приключения, WEB-DLRip | Lostfilm]

Nickolas3435

9 | 5

35.19 ГБ

В этой теме нет новых непрочитанных сообщений. Управление гневом / Anger Management (Роб Шиллер) (Сезон 1-2, Серии 1-74 из ХХ) [2012-2014, Комедия, ситком, HDTVRip-AVC 720р] [DD5.1] [MVO] [LostFilm]

Враг Нароода

3 | 9

49.88 ГБ


Начать новую тему Ответить на тему  [ 1 сообщение ] 




Для Мосгорсуда, Роскомнадзора и рекламодателей:: mosgorsud-torrent[собачка]yandex.ru