Торрент файл
скачать торрент магнет ссылка Добавлен: 19 дек 2011, 22:31
Размер: 19.01 ГБ
Сидеров: 30
Личеров: 20
Автор

СообщениеДобавлено: 19 дек 2011, 22:31 

Не в сети
Супермодератор
Аватара пользователя
Дата регистрации:
11 апр 2010, 18:10
Спасибо: 5802 / 7
Сообщения: 56779
Тайны Хейвена, 1 сезон 1-13 серии из 13 / Haven

Перевод: Профессиональный (многоголосый, закадровый), cубтитры: отсутствуют
Формат: WEB-DL, MKV, H.264/AVC, AC3
Страна: Канада
Режиссер: Adam Kane,Т.У. Пикок, Тим Соутэм, Роберт Либерман
Жанр: ужасы, фэнтези, триллер, драма, криминал, детектив
Всего серий: 13
Продолжительность: 13 х 00:43
Год выпуска: 2010

В ролях: Emily Rose, Eric Balfour, Lucas Bryant, Nicholas Campbell, Richard Donat

Описание: В маленький город Хейвен приезжает агент ФБР Одри Паркер, чтобы расследовать смерть бывшего преступника. Из-за своего природного любопытства она попала в эпицентр этого необычного анклава, который, оказывается, издавна служил пристанищем для людей со сверхспособностями. Среди местных жителей города полицейский Натан Вурно, который стал напарником Одри, и загадочный и обаятельный мастер на все руки Дюк Крокер.

Рейтинг на:


Видео: 1280x720 (16:9), MPEG4/ISO/AVC High@L3.1, 23.976 fps, 3996 Kbps, 0.181 bit/pixel
Аудио RUS: 48.0 kHz, AC3 Dolby Digital, 2/0 (L,R) ch, ~384 kbps
Аудио ENG: 48.0 kHz, AC3 Dolby Digital, 6 (L,C,R,l,r) + LFE ch, ~448.00 kbps avg

Доп. информация:
Озвучка: Закадровая многоголосая (ТВ3).
Слоган:«It takes a village to hide a secret.»

Релиз от:
Общее
Уникальный идентификатор: 203787838169620972023028270362710711528 (0x99501C27DD4459899CF66B1EA4871CE
Полное имя: D:\Фильмы\Haven_s01_[tfile.ru]\Haven_s01_e01_[tfile.ru].mkv
Формат: Matroska
Размер файла: 1,48 Гбайт
Продолжительность: 43 м.
Общий поток: 4860 Кбит/сек
Дата кодирования: UTC 2011-08-18 19:22:07
Программа кодирования: mkvmerge v2.3.0 ('Freak U') built on Sep8 2008 18:32:16
Библиотека кодирования: libebml v0.7.7 + libmatroska v0.8.1

Видео
Идентификатор: 1
Формат: AVC
Формат/Информация: Advanced Video Codec
Профиль формата: High@L3.1
Параметр CABAC формата: Нет
Параметр ReFrames формата: 2 кадры
Параметры GOP формата: M=2, N=61
Идентификатор кодека: V_MPEG4/ISO/AVC
Продолжительность: 43 м.
Битрейт: 3996 Кбит/сек
Ширина: 1280 пикс.
Высота: 720 пикс.
Соотношение сторон: 16:9
Частота кадров: 23,976 кадр/сек
Цветовое пространство: YUV
Подвыборка цветности: 4:2:0
Битовая глубина: 8 бит
Тип развёртки: Прогрессивная
Бит/(Пиксели*Кадры): 0.181
Размер потока: 1,22 Гбайт (82%)
Язык: English
Основные цвета: BT.709-5, BT.1361, IEC 61966-2-4, SMPTE RP177
Характеристики трансфера: BT.709-5, BT.1361
Коэффициенты матрицы: BT.709-5, BT.1361, IEC 61966-2-4 709, SMPTE RP177

Аудио #1
Идентификатор: 2
Формат: AC-3
Формат/Информация: Audio Coding 3
Расширение режима: CM (complete main)
Идентификатор кодека: A_AC3
Продолжительность: 43 м.
Вид битрейта: Постоянный
Битрейт: 384 Кбит/сек
Канал(ы): 2 канала(ов)
Расположение каналов: Front: L R
Частота: 48,0 КГц
Битовая глубина: 16 бит
Метод сжатия: С потерями
Размер потока: 120 Мбайт (8%)
Язык: Russian

Аудио #2
Идентификатор: 3
Формат: AC-3
Формат/Информация: Audio Coding 3
Расширение режима: CM (complete main)
Идентификатор кодека: A_AC3
Продолжительность: 43 м.
Вид битрейта: Постоянный
Битрейт: 384 Кбит/сек
Канал(ы): 6 канала(ов)
Расположение каналов: Front: L C R, Side: L R, LFE
Частота: 48,0 КГц
Битовая глубина: 16 бит
Метод сжатия: С потерями
Размер потока: 120 Мбайт (8%)
Язык: English









Добавлена 13-ая серия,10.09.2011 перезалейте торрент!
Сезон закончен!

Поделиться:




реклама партнёра


Вернуться к началу
 Профиль Отправить личное сообщение  
 
   Похожие торренты   Автор   Торрент   Размер 
В этой теме нет новых непрочитанных сообщений. Хэйвен / Тайны Хейвена / Haven [S01-04] [триллер, фэнтези, драма, 2010-2013] WEB-DLRip, Dvo [Кубик в Кубе]

salma3

58 | 59

22.93 ГБ

В этой теме нет новых непрочитанных сообщений. Тайны Хейвена / Haven [05х01-15 из 26] (Т.У. Пикок, Ли Роуз, Тим Соутэм, Фред Гербер) [2014-2015, Мистический триллер, криминальный детектив, ужасы, WEB-DL 1080p | Кубик в Кубе]

Nickolas3435

8 | 37

25.92 ГБ

В этой теме нет новых непрочитанных сообщений. Тайны Хейвена / Haven [05х01-15 из 26] (Т.У. Пикок, Ли Роуз, Тим Соутэм, Фред Гербер) [2014-2015, Мистический триллер, криминальный детектив, ужасы, WEB-DLRip | Кубик в Кубе]

Nickolas3435

62 | 180

12.49 ГБ

В этой теме нет новых непрочитанных сообщений. Тайны Хейвена / Haven [05х01-15 из 26] (Т.У. Пикок, Ли Роуз, Тим Соутэм, Фред Гербер) [2014-2015, Мистический триллер, криминальный детектив, ужасы, WEB-DL 720p | Кубик в Кубе]

Nickolas3435

13 | 35

21.81 ГБ

В этой теме нет новых непрочитанных сообщений. Хейвен / Haven [05x01] (Т.У. Пикок, Ли Роуз, Тим Соутэм) [2014, Фэнтези, триллер, драма, криминал, детектив, HDTV 720р | Kerob]

Nickolas3435

36 | 3

1.06 ГБ

В этой теме нет новых непрочитанных сообщений. Хэйвен / Haven / 5 сезон 1-3 серии из 13 [фэнтези, триллер, драма, детектив, 2014] WEB-DLRip, Mvo [BaibaKo]

salma3

10 | 3

1.71 ГБ

В этой теме нет новых непрочитанных сообщений. Чужой среди своих / Родина / Homeland (Сезон 2-4, Серии 1-28 из 36) [2012-2014, Триллер, драма, криминал, детектив , WEBDLRip-AVC 720р] [MVO] (LostFilm)

Враг Нароода


Начать новую тему Ответить на тему  [ 1 сообщение ] 




Для Мосгорсуда, Роскомнадзора и рекламодателей:: mosgorsud-torrent[собачка]yandex.ru