Торрент файл
скачать торрент магнет ссылка Добавлен: 19 дек 2011, 22:29
Размер: 24.59 ГБ
Сидеров: 0
Личеров: 6
Автор

СообщениеДобавлено: 19 дек 2011, 22:29 

Не в сети
Супермодератор
Аватара пользователя
Дата регистрации:
11 апр 2010, 18:10
Спасибо: 5960 / 7
Сообщения: 56765
Настоящая Кровь, 4 сезон 1-12 серии из 12 / True Blood

Перевод: Профессиональный (многоголосый, закадровый), cубтитры: отсутствуют
Формат: HDTV, MKV, H.264/AVC, AC3
Страна: США
Режиссер: Майкл Леманн, Скотт Уинант, Даниэль Минахан
Жанр: Триллер, фэнтези, ужасы
Всего серий: 12
Продолжительность: 12 х 00:55
Год выпуска: 2011

В ролях: Анна Пакуин, Стивен Мойер, Сэм Траммелл, Райан Квантен, Рутина Уэсли, Кристофер Бауэр, Нелсан Эллис, Джим Пэррак, Кэрри Престон, Александр Скарсгард

Описание: События разворачиваются в небольшом городке в пригороде Нового Орлеана. С тех пор, как японцы изобрели синтетическую кровь «True Blood», у вампиров отпала необходимость убивать простых смертных. Два года назад вампиры покинули свои гробы и официально заявили о своих правах. Но как водится, не все люди оказались готовы к этому, и не все вампиры были рады отказаться от привычного лакомства. Сьюки Стэкхауз — обычная официантка из пригородного кафе, наделенная способностью читать мысли окружающих, знакомится с «хорошим» вампиром Биллом Комтоном. И сразу приобретает много врагов из «плохих парней»

Рейтинг:

Видео: 1280x720 (16:9), 23.976 fps, MPEG4/ISO/AVC, High@L4.1, x264, ~5000 kbps avg, 0.228 bit/pixel
Аудио Rus: 48 kHz, AC3 6 (L,C,R,l,r) + LFE ch, ~384.00 kbps avg
Аудио Eng: 48 kHz, AC3 2 (L,R) ch, ~384.00 kbps avg

Общее
Уникальный идентификатор: 195134132847592411160206127584939724547 (0x92CD778AD7BB5E81B7452924381DCF03)
Полное имя: C:\Users\Радик\Downloads\true_blood_s04_[tfile.ru]\true_blood_s04e01_[tfile.ru].mkv
Формат: Matroska
Версия формата: Version 2
Размер файла: 2,35 Гбайт
Продолжительность: 58 м.
Общий поток: 5774 Кбит/сек
Дата кодирования: UTC 2011-07-03 11:35:44
Программа кодирования: mkvmerge v4.8.0 ('I Got The...') сборка от May 24 2011 03:12:58
Библиотека кодирования: libebml v1.2.0 + libmatroska v1.1.0

Видео
Идентификатор: 1
Формат: AVC
Формат/Информация: Advanced Video Codec
Профиль формата: High@L4.1
Параметр CABAC формата: Да
Параметр ReFrames формата: 7 кадров
Параметры GOP формата: M=1, N=36
Идентификатор кодека: V_MPEG4/ISO/AVC
Продолжительность: 58 м.
Битрейт: 5000 Кбит/сек
Ширина: 1280 пикс.
Высота: 720 пикс.
Соотношение сторон: 16:9
Частота кадров: 23,976 кадр/сек
Цветовое пространство: YUV
Подвыборка цветности: 4:2:0
Битовая глубина: 8 бит
Тип развёртки: Прогрессивная
Бит/(Пиксели*Кадры): 0.228
Размер потока: 1,99 Гбайт (85%)
Библиотека кодирования: x264 core 115 r2008 4c552d8
Настройки программы: cabac=1 / ref=7 / deblock=1:-2:-2 / analyse=0x3:0x113 / me=esa / subme=8 / psy=1 / psy_rd=1.15:0.10 / mixed_ref=1 / me_range=24 / chroma_me=1 / trellis=2 / 8x8dct=1 / cqm=0 / deadzone=21,11 / fast_pskip=1 / chroma_qp_offset=-3 / threads=12 / sliced_threads=0 / nr=0 / decimate=1 / interlaced=0 / bluray_compat=0 / constrained_intra=0 / bframes=6 / b_pyramid=2 / b_adapt=2 / b_bias=0 / direct=3 / weightb=1 / open_gop=0 / weightp=2 / keyint=250 / keyint_min=23 / scenecut=40 / intra_refresh=0 / rc_lookahead=50 / rc=2pass / mbtree=1 / bitrate=5000 / ratetol=1.0 / qcomp=0.60 / qpmin=0 / qpmax=69 / qpstep=4 / cplxblur=20.0 / qblur=0.5 / ip_ratio=1.40 / aq=2:1.00
Язык: English

Аудио #1
Идентификатор: 2
Формат: AC-3
Формат/Информация: Audio Coding 3
Расширение режима: CM (complete main)
Идентификатор кодека: A_AC3
Продолжительность: 58 м.
Вид битрейта: Постоянный
Битрейт: 384 Кбит/сек
Каналы: 6 каналов
Расположение каналов: Front: L C R, Side: L R, LFE
Частота: 48,0 КГц
Битовая глубина: 16 бит
Метод сжатия: С потерями
Размер потока: 160 Мбайт (7%)
Язык: Russian

Аудио #2
Идентификатор: 3
Формат: AC-3
Формат/Информация: Audio Coding 3
Расширение режима: CM (complete main)
Идентификатор кодека: A_AC3
Продолжительность: 58 м.
Вид битрейта: Постоянный
Битрейт: 384 Кбит/сек
Каналы: 2 канала
Расположение каналов: Front: L R
Частота: 48,0 КГц
Битовая глубина: 16 бит
Метод сжатия: С потерями
Задержка видео: 31 мс.
Размер потока: 160 Мбайт (7%)
Язык: English






Поделиться:




реклама партнёра


Вернуться к началу
 Профиль Отправить личное сообщение  
 
   Похожие торренты   Автор   Торрент   Размер 
В этой теме нет новых непрочитанных сообщений. Настоящая кровь / True Blood / 1-6 сезоны 1-70 серии из 70 [ужасы, фэнтези, мелодрама, 2008-2013] WEB-DL 720p, Mvo [Fox Life, Novamedia]

salma3

3 | 15

78.87 ГБ

В этой теме нет новых непрочитанных сообщений. Настоящая кровь / True Blood [S07] [фэнтези, триллер, драма, мелодрама, детектив, 2014] BDRip 1080p, Mvo

salma3

13 | 33

45.81 ГБ

В этой теме нет новых непрочитанных сообщений. Настоящая кровь / True Blood [S01-07] [Драма, ужасы, фантастика, 2008-2014] HDRip, Mvo [FoxLife+Amedia]

salma3

5 | 20

76.63 ГБ

В этой теме нет новых непрочитанных сообщений. Константин / Constantine / 1 сезон 1-13 серии из 13 [ужасы, фэнтези, 2014] WEB-DL 720p [BaibaKo]

Dracon

5 | 8

18.87 ГБ

В этой теме нет новых непрочитанных сообщений. Чужая кровь / Strange Blood (Чед Майкл Уорд) [ужасы, 2014] WEB-DLRip, dvo

Dracon

2 | 1

1.37 ГБ

В этой теме нет новых непрочитанных сообщений. Волшебники / The Magicians [01х01 из 13] (Скотт Смит, Майк Кэхилл, Ян Элиасберг) [ужасы, фэнтези, драма, детективдрама, 2015] HDTVRip 720p [BaibaKo]

Dracon

693 | 46

1.29 ГБ

В этой теме нет новых непрочитанных сообщений. Кровь и нефть / Blood & Oil [01х01-10 из 10] (Джонас Пейт) [Драма, 2015] HDTV 720p, Mvo [IdeaFilm]

Dracon

40 | 24

13.51 ГБ


Начать новую тему Ответить на тему  [ 1 сообщение ] 




Для Мосгорсуда, Роскомнадзора и рекламодателей:: mosgorsud-torrent[собачка]yandex.ru