Торрент файл
скачать торрент магнет ссылка Добавлен: 19 дек 2011, 22:28
Размер: 9.38 ГБ
Сидеров: 0
Личеров: 5
Автор

СообщениеДобавлено: 19 дек 2011, 22:28 

Не в сети
Супермодератор
Аватара пользователя
Дата регистрации:
11 апр 2010, 18:10
Спасибо: 5801 / 7
Сообщения: 56779
Уилфред, 1 сезон 1-13 серии / Wilfred


Перевод: Профессиональный (двухголосый, закадровый), Любительский (многоголосый, закадровый),Субтитры: Есть (вшитые)
Формат: WEB DL 720p, MKV, H.264, AC3
Страна: США
Режиссер: Рэндолл Эйнхорн, Виктор Нелли мл
Жанр: Комедия
Всего серий: 13
Продолжительность: 13 х 00:25
Год выпуска: 2011

В ролях: Фиона Габелманн, Элайджа Вуд, Джейсон Гэнн, Дориан Браун, Эл Сапьенза, Рэйчел Стерлинг, Марк Энтони Лопез, Мэттью Каминский

Описание: Сюжет строится вокруг молодого человека по имени Райан, который ухаживает за девушкой — хозяйкой пса по кличке Уилфред. Пес и молодой человек не нравятся друг другу с первого взгляда. Дело осложняется тем, что вместо собаки Райан видит человека в собачьем костюме, который с ним разговаривает.

Рейтинг на IMDB:



Видео:1280x720 (16:9), H.264, 23,976 fps, MPEG4 AVC, High@L3.1, 3914 kbps avg, 0.177 bit/pixel
Аудио RUS: 48.0 kHz, AC3 Dolby Digital, 2/0 (L,R) ch, ~448 kbps avg - Кубик в Кубе
Аудио RUS: 48.0 kHz, AC3 Dolby Digital, 2/0 (L,R) ch, ~448 kbps avg - Creative Sound
Аудио ENG: 48.0 kHz, AC3 Dolby Digital, 5/1 (L,C,R,l,r) + LFE ch, ~448 kbps avg

С 4 - ой серии

Аудио RUS: 48.0 kHz, AC3 Dolby Digital, 2/0 (L,R) ch, ~192 kbps avg - Кубик в Кубе
Аудио ENG: 48.0 kHz, AC3 Dolby Digital, 5/1 (L,C,R,l,r) + LFE ch, ~384 kbps avg

Субтитры RUS: Notobenoid
Субтитры ENG: Оригинальные

Доп. информация:

Работа со звуком и субтитрами - GATER

1-3 серии http://tfile.ru/forum/viewtopic.php?t=460050 (Кубик в Кубе)
1 серия http://tfile.ru/forum/viewtopic.php?t=458962 (Creative Sound)
2 серия http://tfile.ru/forum/viewtopic.php?t=460378 (Creative Sound)
3 серия http://tfile.ru/forum/viewtopic.php?t=462258 (Creative Sound)





2-х минутный сэмпл здесь - http://multi-up.com/517563


Media Player Classic





VLC Media Player




Общее
Уникальный идентификатор: 197035624319648953487554708943460906097 (0x943BAE4F62A77549AAE1784429943471)
Полное имя: C:\Documents and Settings\Admin\Мои документы\Мои видеозаписи\фильмы\Моё\Констракшн\Уилфред\Wilfred_S01_[tfile.ru].mkv\Wilfred_S01E01_[tfile.ru].mkv
Формат: Matroska
Размер файла: 881 Мбайт
Продолжительность: 23 м.
Общий поток: 5299 Кбит/сек
Название фильма: Wilfred (2011) S01E01 - Happiness @ - Gater -
Дата кодирования: UTC 2011-07-02 10:56:33
Программа кодирования: mkvmerge v4.0.0 ('The Stars were mine') сборка от Jun6 2010 16:18:42
Библиотека кодирования: libebml v1.0.0 + libmatroska v1.0.0

Видео
Идентификатор: 1
Формат: AVC
Формат/Информация: Advanced Video Codec
Профиль формата: High@L3.1
Параметр CABAC формата: Нет
Параметр ReFrames формата: 2 кадры
Идентификатор кодека: V_MPEG4/ISO/AVC
Продолжительность: 23 м.
Битрейт: 3914 Кбит/сек
Ширина: 1280 пикс.
Высота: 720 пикс.
Соотношение сторон: 16:9
Частота кадров: 23,976 кадр/сек
Цветовое пространство: YUV
Подвыборка цветности: 4:2:0
Битовая глубина: 8 бит
Тип развёртки: Прогрессивная
Бит/(Пиксели*Кадры): 0.177
Размер потока: 650 Мбайт (74%)
Заголовок: Wilfred (2011) S01E01 - Happiness @ - Gater -
Язык: English
Основные цвета: BT.709-5, BT.1361, IEC 61966-2-4, SMPTE RP177
Характеристики трансфера: BT.709-5, BT.1361
Коэффициенты матрицы: BT.709-5, BT.1361, IEC 61966-2-4 709, SMPTE RP177

Аудио #1
Идентификатор: 2
Формат: AC-3
Формат/Информация: Audio Coding 3
Расширение режима: CM (complete main)
Идентификатор кодека: A_AC3
Продолжительность: 23 м.
Вид битрейта: Постоянный
Битрейт: 448 Кбит/сек
Канал(ы): 2 канала(ов)
Расположение каналов: Front: L R
Частота: 48,0 КГц
Битовая глубина: 16 бит
Метод сжатия: С потерями
Размер потока: 74,4 Мбайт (8%)
Заголовок: AC3 DD 2.0 48.0 kHz 448 kbps - Kybik V Kybe
Язык: Russian

Аудио #2
Идентификатор: 3
Формат: AC-3
Формат/Информация: Audio Coding 3
Расширение режима: CM (complete main)
Идентификатор кодека: A_AC3
Продолжительность: 23 м.
Вид битрейта: Постоянный
Битрейт: 448 Кбит/сек
Канал(ы): 2 канала(ов)
Расположение каналов: Front: L R
Частота: 48,0 КГц
Битовая глубина: 16 бит
Метод сжатия: С потерями
Размер потока: 74,4 Мбайт (8%)
Заголовок: AC3 DD 2.0 48.0 kHz 448 kbps - Creative Sound
Язык: Russian

Аудио #3
Идентификатор: 4
Формат: AC-3
Формат/Информация: Audio Coding 3
Расширение режима: CM (complete main)
Идентификатор кодека: A_AC3
Продолжительность: 23 м.
Вид битрейта: Постоянный
Битрейт: 384 Кбит/сек
Канал(ы): 6 канала(ов)
Расположение каналов: Front: L C R, Side: L R, LFE
Частота: 48,0 КГц
Битовая глубина: 16 бит
Метод сжатия: С потерями
Размер потока: 63,8 Мбайт (7%)
Заголовок: AC3 DD 5.1 48.0 kHz 384 kbps - Original
Язык: English

Текст #1
Идентификатор: 8
Формат: UTF-8
Идентификатор кодека: S_TEXT/UTF8
Идентификатор кодека/Информация: UTF-8 Plain Text
Заголовок: *
Язык: Russian

Текст #2
Идентификатор: 6
Формат: UTF-8
Идентификатор кодека: S_TEXT/UTF8
Идентификатор кодека/Информация: UTF-8 Plain Text
Заголовок: Notobenoid
Язык: Russian

Текст #3
Идентификатор: 7
Формат: UTF-8
Идентификатор кодека: S_TEXT/UTF8
Идентификатор кодека/Информация: UTF-8 Plain Text
Заголовок: Original
Язык: English

Текст #4
Идентификатор: 5
Формат: UTF-8
Идентификатор кодека: S_TEXT/UTF8
Идентификатор кодека/Информация: UTF-8 Plain Text


Добавлены последнии, 12 и 13 серии! 18.09.2011. Перезакачайте торрент!
Поделиться:




реклама партнёра


Вернуться к началу
 Профиль Отправить личное сообщение  
 
   Похожие торренты   Автор   Торрент   Размер 
В этой теме нет новых непрочитанных сообщений. Рэй Донован / Ray Donovan (Аллен Коултер) (Сезон 4, Серии 1-12 из 12) [2016, Криминальная драма, ]WEB-DL 1080p] [DD5.1] [MVO] [NewStudio, Kubik V Kube, English + Subs Rus,ENG]

Враг Нароода

2 | 1

33.17 ГБ

В этой теме нет новых непрочитанных сообщений. Уилфред / Wilfred [S03] [Комедия, 2013] WEB-DLRip, Dvo [Кубик в Кубе]

Dracon

66 | 16

5.77 ГБ

В этой теме нет новых непрочитанных сообщений. Уилфред / Wilfred [04x01-10 из 10] [Комедия, 2014] WEB-DLRip, Dvo [Кубик в Кубе]

Dracon

113 | 81

1.94 ГБ

В этой теме нет новых непрочитанных сообщений. Мистер Робот / Mr.Robot(Сезон 1,Серия 1-9 из 10) (Нильс Арден Оплев) [2005, Криминальная драма , HDTVRip , WEB-DLRip-AVC 1080p] [DD5.1] [MVO] [LostFilm ,Kubik V Kube , NewStudio , BaibaKo , Ideafilm + Subs Rus,ENG]

Враг Нароода

2 | 1

23.41 ГБ

В этой теме нет новых непрочитанных сообщений. Мистер Робот / Mr.Robot(Сезон 1,Серия 1-10 из 10) (Нильс Арден Оплев) [2005, Криминальная драма , HDTVRip , WEB-DLRip-AVC 1080p] [DD5.1] [MVO] [LostFilm ,Kubik V Kube , NewStudio , BaibaKo , Ideafilm + Subs Rus,ENG]

Враг Нароода

1 | 0

26.43 ГБ

В этой теме нет новых непрочитанных сообщений. Наемник Куорри / Quarry (Сезон 1, Серия 1-4 из 8 ) (Грег Яйтанс, Джон Хиллкоут) [2016, Криминальная драма , HDTVRip 1080p ] [MVO] [AlexFilm , NewStudiо ,BaibaK o,Kubik V Kube , English + Subs ENG]

Враг Нароода

2 | 0

16.93 ГБ

В этой теме нет новых непрочитанных сообщений. Мистер Робот / Mr.Robot(Сезон 1,Серия 1-8 из 10) (Нильс Арден Оплев) [2005, Криминальная драма , HDTVRip , WEB-DLRip-AVC 1080p] [DD5.1] [MVO] [LostFilm ,Kubik V Kube , NewStudio , BaibaKo , Ideafilm + Subs Rus,ENG]

Враг Нароода

10 | 17

20.45 ГБ


Начать новую тему Ответить на тему  [ 1 сообщение ] 




Для Мосгорсуда, Роскомнадзора и рекламодателей:: mosgorsud-torrent[собачка]yandex.ru