Торрент файл
скачать торрент магнет ссылка Добавлен: 19 дек 2011, 22:26
Размер: 1.46 ГБ
Сидеров: 0
Личеров: 4
Автор

СообщениеДобавлено: 19 дек 2011, 22:26 

Не в сети
Супермодератор
Аватара пользователя
Дата регистрации:
11 апр 2010, 18:10
Спасибо: 5801 / 7
Сообщения: 56779
Клуб Плейбой, 1 сезон 1 серия / The Playboy Club


Пилот / Pilot

Перевод: Профессиональный (Многоголосый, закадровый), Субтитры: отсутствуют
Формат: WEB-DL, MKV, H.264/AVC, AC3
Страна: США
Режиссер: Кенни Ортега, Алан Тейлор
Жанр: Драма
Всего серий: 13
Продолжительность: 00:42:44
Год выпуска: 2011

В ролях: Эдди Сибриан (Ник Далтон), Эмбер Херд (Морин), Лора Бенанти (Кэрол-Линн), Дэвид Крумхольтц (Билли), Дженна Деуан Татум (Джени)

Описание: На дворе начало 60-х, и легендарный клуб Playboy является дверью в мечту, а ключ к нему стал статусным символом. В этом храме красоты и обслуживания среди клиентов – выдающиеся политики, мафиози и знаменитости своего времени. Ник Далтон – один из лучших адвокатов города и плейбой, который общается со всеми, у кого власть над городом. Благодаря своим связям с мафией Ник приходит на выручку Морин, юной, очаровательной и наивной девушке из клуба Playboy, которая случайно убила лидера мафиозной семьи Биянчи. Ник встречается с Кэрол-Линн, сногсшибательной звездой клуба Playboy, которая понимает, что ее дни в клубе сочтены, и которая постоянно конфликтует с Билли, генеральным менеджером клуба. Джени, душа вечеринок, встречается с ревнивым барменом.

Рейтинг на:


Видео: 1280x720 (16:9), MPEG4/ISO/AVC, High@L3.1 , 23,976 fps, 4019 Kbps, 0.182 bit/pixel
Аудио RUS: 48.0 kHz, AC3 Dolby Digital, 6 (L,C,R,l,r) + LFE ch, ~384.00 kbps avg
Аудио ENG: 48.0 kHz, AC3 Dolby Digital, 6 (L,C,R,l,r) + LFE ch, ~384.00 kbps avg

Доп. информация:

Релиз:


Над релизом работали:
Перевод: Luba
Озвучка: Анастасия Манжай, Anna_Smile, Александр Фурман и Алексей Кузнецов.
Сведение: Vitall Digitall

Общее
Уникальный идентификатор: 173361436922517227366854731967677061386 (0x826C32C0FA50DE7C8471B2A09D67D90A)
Полное имя: C:\Documents and Settings\users\Рабочий стол\720p\The_Playboy_Club_S01E01_[tfile.ru].mkv
Формат: Matroska
Размер файла: 1,46 Гбайт
Продолжительность: 42 м.
Общий поток: 4885 Кбит/сек
Название фильма: BaibaKo.tv presents - Клуб Плейбой 1х01 Пилот
Дата кодирования: UTC 2011-09-20 23:19:06
Программа кодирования: mkvmerge v4.8.0 ('I Got The...') сборка от May 24 2011 03:12:58
Библиотека кодирования: libebml v1.2.0 + libmatroska v1.1.0

Видео
Идентификатор: 1
Формат: AVC
Формат/Информация: Advanced Video Codec
Профиль формата: High@L3.1
Параметр CABAC формата: Нет
Параметр ReFrames формата: 2 кадра
Параметры GOP формата: M=2, N=25
Идентификатор кодека: V_MPEG4/ISO/AVC
Продолжительность: 42 м.
Битрейт: 4019 Кбит/сек
Ширина: 1280 пикс.
Высота: 720 пикс.
Соотношение сторон: 16:9
Частота кадров: 23,976 кадр/сек
Цветовое пространство: YUV
Подвыборка цветности: 4:2:0
Битовая глубина: 8 бит
Тип развёртки: Прогрессивная
Бит/(Пиксели*Кадры): 0.182
Размер потока: 1,20 Гбайт (82%)
Язык: English
Основные цвета: BT.709-5, BT.1361, IEC 61966-2-4, SMPTE RP177
Характеристики трансфера: BT.709-5, BT.1361
Коэффициенты матрицы: BT.709-5, BT.1361, IEC 61966-2-4 709, SMPTE RP177

Аудио #1
Идентификатор: 2
Формат: AC-3
Формат/Информация: Audio Coding 3
Расширение режима: CM (complete main)
Идентификатор кодека: A_AC3
Продолжительность: 42 м.
Вид битрейта: Постоянный
Битрейт: 384 Кбит/сек
Каналы: 6 каналов
Расположение каналов: Front: L C R, Side: L R, LFE
Частота: 48,0 КГц
Битовая глубина: 16 бит
Метод сжатия: С потерями
Размер потока: 117 Мбайт (8%)
Заголовок: Rus BaibaKo.tv DD5.1
Язык: Russian

Аудио #2
Идентификатор: 3
Формат: AC-3
Формат/Информация: Audio Coding 3
Расширение режима: CM (complete main)
Идентификатор кодека: A_AC3
Продолжительность: 42 м.
Вид битрейта: Постоянный
Битрейт: 384 Кбит/сек
Каналы: 6 каналов
Расположение каналов: Front: L C R, Side: L R, LFE
Частота: 48,0 КГц
Битовая глубина: 16 бит
Метод сжатия: С потерями
Размер потока: 117 Мбайт (8%)
Заголовок: Eng DD5.1
Язык: English



1 сезон в 720р:








Поделиться:




реклама партнёра


Вернуться к началу
 Профиль Отправить личное сообщение  
 
   Похожие торренты   Автор   Торрент   Размер 
В этой теме нет новых непрочитанных сообщений. Клуб жён астронавтов / The Astronaut Wives Club [1 сезон 1-10 серии из 10] (Дж. Миллер Тобин) [драма, 2015] WEB-DLRip [Baibako]

Dracon

11 | 3

5.54 ГБ

В этой теме нет новых непрочитанных сообщений. Клуб жён астронавтов / The Astronaut Wives Club [S01] (Дж. Миллер Тобин) [драма, 2015] WEB-DL 720p [Baibako]

Dracon

61 | 83

13.86 ГБ

В этой теме нет новых непрочитанных сообщений. Наследники / Descendants (Кенни Ортега) [фэнтези, боевик, комедия, приключения, 2015] WEB-DLRip, mvo

Dracon

3922 | 117

1.46 ГБ

В этой теме нет новых непрочитанных сообщений. Наследники / Descendants (Кенни Ортега) [фэнтези, боевик, комедия, приключения, 2015] WEB-DL 1080p, mvo

Dracon

137 | 16

4.02 ГБ

В этой теме нет новых непрочитанных сообщений. Бойцовский клуб для животных / Animal Fight Club / 1 сезон: 1-3 серии из 3 [документальный, 2014] SATRip, Dub

salma3

12 | 6

1.52 ГБ

В этой теме нет новых непрочитанных сообщений. Терминатор: Генезис / Terminator Genisys (Алан Тейлор) [фантастика, боевик, триллер, приключения, 2015] Blu-Ray, Dub+Sub [iTunes]

Dracon

261 | 32

33.97 ГБ

В этой теме нет новых непрочитанных сообщений. Терминатор: Генезис / Terminator Genisys (Алан Тейлор) [фантастика, боевик, триллер, приключения, 2015] Blu-Ray, Dub+Sub [Лицензия]

Dracon

177 | 56

41.4 ГБ


Начать новую тему Ответить на тему  [ 1 сообщение ] 




Для Мосгорсуда, Роскомнадзора и рекламодателей:: mosgorsud-torrent[собачка]yandex.ru