Торрент файл
скачать торрент магнет ссылка Добавлен: 19 дек 2011, 22:23
Размер: 15.4 ГБ
Сидеров: 7
Личеров: 13
Автор

СообщениеДобавлено: 19 дек 2011, 22:23 

Не в сети
Супермодератор
Аватара пользователя
Дата регистрации:
11 апр 2010, 18:10
Спасибо: 5962 / 7
Сообщения: 56765
Люди-Альфа / Псионики, 1 сезон 1-11 серии из 11 / Alphas


Перевод: Профессиональный (многоголосый, закадровый), cубтитры: отсутствуют
Формат: WEB-DL, MKV, H.264, AC3
Страна: США
Режиссер: Ник Копус
Жанр: Драма, Фантастика, Боевик, Триллер
Всего серий: 11
Продолжительность: 11 x 00:53
Год выпуска: 2011

В ролях: Дэвид Стрэтэйрн,Уоррен Кристи,Азита Ганизада,Лора Меннелл,Райан Картрайт,Малик Йоба и др.

Описание: Эксперт министерства обороны Ли Розен возглавляет подразделение специалистов, обладающих уникальными способностями. Каждый из пяти членов его команды - человек со сверхразвитыми психофизическими возможностями. В разработку группы Альфа попадают исключительно сверхсложные задания, с которыми не могут справиться американские спецслужбы - ФБР и ЦРУ. По отдельности каждый из агентов мало чем отличается от обычных людей и в одиночку не способен на что-то экстраординарное, но вместе они могут творить чудеса.

Рейтинг на:


Видео: 1280х720, (16/9), 23,976 fps, V_MPEG4/ISO/AVC, High@L3.1, ~4041 kbps avg, 0.184 bit/pixel
Аудио: 48 kHz, AC3 Dolby Digital, 2/0 (L,R) ch, ~384 kbps

Доп. информация:
Сценарий: Зэк Пенн, Michael Karnow
Продюсер: Brian Moraga, Peter Chomsky, Роберт Хьюитт Вулф, Зэк Пенн, Julie Siege (все)
Оператор: David Perrault
Композитор: Edward Rogers

Релиз и озвучание:






Общее
Уникальный идентификатор: 220433269800752452174650770011987056809 (0xA5D5E74C17F53AE8A7CB6486CB6F18A9)
Полное имя: E:\Фильмы\Alphas_s01_[tfile.ru]\Alphas_s01_e01_[tfile.ru].mkv
Формат: Matroska
Размер файла: 1,99 Гбайт
Продолжительность: 1 ч. 4 м.
Общий поток: 4426 Кбит/сек
Дата кодирования: UTC 2011-07-18 19:05:18
Программа кодирования: mkvmerge v4.7.0 ('Just Like You Imagined') сборка от Apr 21 2011 01:13:14
Библиотека кодирования: libebml v1.2.0 + libmatroska v1.1.0

Видео
Идентификатор: 2
Формат: AVC
Формат/Информация: Advanced Video Codec
Профиль формата: High@L3.1
Параметр CABAC формата: Да
Параметр ReFrames формата: 4 кадры
Параметры GOP формата: M=2, N=4
Режим смешивания: Header stripping
Идентификатор кодека: V_MPEG4/ISO/AVC
Продолжительность: 1 ч. 4 м.
Битрейт: 4041 Кбит/сек
Ширина: 1280 пикс.
Высота: 720 пикс.
Соотношение сторон: 16:9
Частота кадров: 23,976 кадр/сек
Цветовое пространство: YUV
Подвыборка цветности: 4:2:0
Битовая глубина: 8 бит
Тип развёртки: Прогрессивная
Бит/(Пиксели*Кадры): 0.183
Размер потока: 1,78 Гбайт (89%)
Библиотека кодирования: x264 core 107 r1745 4785e8e
Настройки программы: cabac=1 / ref=3 / deblock=1:0:0 / analyse=0x3:0x113 / me=hex / subme=7 / psy=1 / psy_rd=1.00:0.00 / mixed_ref=1 / me_range=16 / chroma_me=1 / trellis=1 / 8x8dct=1 / cqm=0 / deadzone=21,11 / fast_pskip=1 / chroma_qp_offset=-2 / threads=4 / sliced_threads=0 / nr=0 / decimate=1 / interlaced=0 / constrained_intra=0 / bframes=3 / b_pyramid=2 / b_adapt=1 / b_bias=0 / direct=1 / weightb=1 / open_gop=0 / weightp=2 / keyint=250 / keyint_min=25 / scenecut=40 / intra_refresh=0 / rc_lookahead=40 / rc=2pass / mbtree=1 / bitrate=4041 / ratetol=1.0 / qcomp=0.60 / qpmin=10 / qpmax=51 / qpstep=4 / cplxblur=20.0 / qblur=0.5 / ip_ratio=1.40 / aq=1:1.00

Аудио
Идентификатор: 1
Формат: AC-3
Формат/Информация: Audio Coding 3
Расширение режима: CM (complete main)
Режим смешивания: Header stripping
Идентификатор кодека: A_AC3
Продолжительность: 1 ч. 4 м.
Вид битрейта: Постоянный
Битрейт: 384 Кбит/сек
Канал(ы): 2 канала(ов)
Расположение каналов: Front: L R
Частота: 44,1 КГц
Битовая глубина: 16 бит
Метод сжатия: С потерями
Размер потока: 177 Мбайт (9%)



Добалена 11-ая серия,29.09.2011 перезакачайте торрент!
Поделиться:




реклама партнёра


Вернуться к началу
 Профиль Отправить личное сообщение  
 
   Похожие торренты   Автор   Торрент   Размер 
В этой теме нет новых непрочитанных сообщений. Салем / Salem / 3 сезон 1-10 серии из 10 [фантастика, триллер, драма, 2016] WEB-DL 720p, Mvo [LostFilm]

salma3

26 | 51

16.43 ГБ

В этой теме нет новых непрочитанных сообщений. Нация Z / Z Nation / 3 сезон 1-15 серии из 15 [Боевик, Драма, Ужасы, Фантастика,, 2016] WEB-DL 720p, Mvo [LostFilm]

salma3

79 | 238

21.4 ГБ

В этой теме нет новых непрочитанных сообщений. По ту сторону / Beyond (Сезон 1, Серия 1-10 из 10) (Стивен Эдельсон, Ник Копус) [2017 , Драма, ужасы, мистика, HDTV 720p] [LostFilm , HamsterStudio , IdeaFilm , English] + [Subs Eng]

Враг Нароода

0 | 0

15.38 ГБ

В этой теме нет новых непрочитанных сообщений. Вызов / Непокорная Земля / Defiance [3 сезон 1-13 серии из 13] (Майкл Нанкин) [фантастика, боевик, драма, 2015] WEB-DLRip 720p, Mvo [LostFilm]

Dracon

85 | 116

18.28 ГБ

В этой теме нет новых непрочитанных сообщений. Смертельное оружие / Lethal Weapon / 1 сезон 1-18 серии из 18 [боевик, триллер, драма, 2016] WEB-DL 720p, Mvo+Sub [LostFilm]

salma3

0 | 1

26.62 ГБ

В этой теме нет новых непрочитанных сообщений. Стрела / Arrow [04х01-05 из 23] (Дэвид Баррет, Дэвид Наттер, Джон Беринг, Гай Норман Би, Ник Копус) [2015, Фантастика, боевик, драма, криминал, детектив, приключения, комикс, WEB-DLRip | LostFilm]

Nickolas3435

419 | 640

2.94 ГБ

В этой теме нет новых непрочитанных сообщений. Салем / Salem / 3 сезон 1-09 серии из 13 [фантастика, триллер, драма, 2016] WEB-DLRip, Mvo [LostFilm]

salma3

62 | 87

4.37 ГБ


Начать новую тему Ответить на тему  [ 1 сообщение ] 




Для Мосгорсуда, Роскомнадзора и рекламодателей:: mosgorsud-torrent[собачка]yandex.ru