Торрент файл
скачать торрент магнет ссылка Добавлен: 10 окт 2014, 21:08
Размер: 24.49 ГБ
Сидеров: 68
Личеров: 33
Автор

СообщениеДобавлено: 19 дек 2011, 22:19 

Не в сети
Супермодератор
Аватара пользователя
Дата регистрации:
11 апр 2010, 18:10
Спасибо: 5802 / 7
Сообщения: 56779
Во все тяжкие, 4 сезон 1-13 серии/ Breaking Bad

Перевод: Профессиональный (многоголосый, закадровый), cубтитры: отсутствуют
Формат: WEB-DL, MKV, H.264, AC3
Страна: США
Режиссер: Адам Бернстайн, Феликс Энрикез Алкала, Чарлз Хэйд, Фил Абрахам, Терри МакДонаф
Жанр: драма, криминал
Всего серий: 13
Продолжительность: 13 х 00:47
Год выпуска: 2011
В ролях: Брайан Крэнстон,Анна Ганн,Аарон Пол,Dean Morris,Дин Норрис,Бетси Брандт,Ар Джей Митт,Боб Оденкерк,Джанкарло Эспозито,Стивен Майкл Кесада,Чарльз Бейкер и др.

Описание: Основная сюжетная линия развивается вокруг школьного учителя химии Уолтера Уайта, который узнаёт, что он болен раком лёгких. Учитывая сложное финансовое состояние дел семьи, а так же перспективы (жена Уолтера, Скайлер, беременна вторым ребёнком, а у сына детский паралич), Уолтер решается на аферу по приготовлению наркотика метамфетамина. Для этого привлекается бывший ученик Джесси Пинкман, когда-то исключенный из школы при активном содействии Уолтера, недавно потерявший партнёра по изготовлению наркотика, знающий «бизнес». Так же в сериале играют важную роль ближайшие родственники Скайлер — сестра Мария и её зять Хэнк. Хэнк служит в Управлении по борьбе с наркотиками и является главным следователем по «делу Уолтера» о пропаже инвентаря из школьного кабинета химии.

Рейтинг на:

Видео: 1280х720, (16/9), 23,976 fps, V_MPEG4/ISO/AVC, High@L3.1, ~ 4041 kbps avg, 0.183 bit/pixel
Аудио: 48 kHz, AC3 Dolby Digital, 2/0 (L,R) ch, ~384 kbps

Доп. информация:
Сценарий: J. Roberts, Винс Гиллигэн, Gennifer Hutchison, Thomas Schnauz, Питер Гулд
Продюсер: Gina Scheerer, Diane Mercer, Винс Гиллигэн, Марк Джонсон, Питер Гулд
Оператор:Питер Рениерс, Майкл Словис, Нельсон Крэгг, Рейналдо Виллалобос
Композитор: Дейв Портер
Перевод: В. Богданов.

Озвучка: Студия "LostFilm".

Релиз от:





Общее
Уникальный идентификатор: 210064858264220687447663772085018917271 (0x9E090523ED4F018EB9CF86A39E5B7997)
Полное имя: D:\Фильмы\Breaking_Bad_s04_[tfile]\Breaking_Bad_s04_e01_[tfile.ru].mkv
Формат: Matroska
Размер файла: 1,46 Гбайт
Продолжительность: 47 м.
Общий поток: 4426 Кбит/сек
Дата кодирования: UTC 2011-07-21 13:51:35
Программа кодирования: mkvmerge v4.7.0 ('Just Like You Imagined') сборка от Apr 21 2011 01:13:14
Библиотека кодирования: libebml v1.2.0 + libmatroska v1.1.0

Видео
Идентификатор: 1
Формат: AVC
Формат/Информация: Advanced Video Codec
Профиль формата: High@L3.1
Параметр CABAC формата: Да
Параметр ReFrames формата: 4 кадры
Параметры GOP формата: M=2, N=4
Режим смешивания: Header stripping
Идентификатор кодека: V_MPEG4/ISO/AVC
Продолжительность: 47 м.
Битрейт: 4041 Кбит/сек
Ширина: 1280 пикс.
Высота: 720 пикс.
Соотношение сторон: 16:9
Частота кадров: 23,976 кадр/сек
Цветовое пространство: YUV
Подвыборка цветности: 4:2:0
Битовая глубина: 8 бит
Тип развёртки: Прогрессивная
Бит/(Пиксели*Кадры): 0.183
Размер потока: 1,31 Гбайт (89%)
Библиотека кодирования: x264 core 107 r1745 4785e8e
Настройки программы: cabac=1 / ref=3 / deblock=1:0:0 / analyse=0x3:0x113 / me=hex / subme=7 / psy=1 / psy_rd=1.00:0.00 / mixed_ref=1 / me_range=16 / chroma_me=1 / trellis=1 / 8x8dct=1 / cqm=0 / deadzone=21,11 / fast_pskip=1 / chroma_qp_offset=-2 / threads=4 / sliced_threads=0 / nr=0 / decimate=1 / interlaced=0 / constrained_intra=0 / bframes=3 / b_pyramid=2 / b_adapt=1 / b_bias=0 / direct=1 / weightb=1 / open_gop=0 / weightp=2 / keyint=250 / keyint_min=25 / scenecut=40 / intra_refresh=0 / rc_lookahead=40 / rc=2pass / mbtree=1 / bitrate=4041 / ratetol=1.0 / qcomp=0.60 / qpmin=10 / qpmax=51 / qpstep=4 / cplxblur=20.0 / qblur=0.5 / ip_ratio=1.40 / aq=1:1.00

Аудио
Идентификатор: 2
Формат: AC-3
Формат/Информация: Audio Coding 3
Расширение режима: CM (complete main)
Идентификатор кодека: A_AC3
Продолжительность: 47 м.
Вид битрейта: Постоянный
Битрейт: 384 Кбит/сек
Канал(ы): 2 канала(ов)
Расположение каналов: Front: L R
Частота: 44,1 КГц
Битовая глубина: 16 бит
Метод сжатия: С потерями
Размер потока: 130 Мбайт (9%)
Язык: Russian



Внимание!Добавлена 13-ая серия,14.10.2011 перезалейте торрент!


Поделиться:




реклама партнёра


Вернуться к началу
 Профиль Отправить личное сообщение  
 
   Похожие торренты   Автор   Торрент   Размер 
В этой теме нет новых непрочитанных сообщений. Во все тяжкие / Breaking Bad( Адам Бернштейн, Брайан Крэнстон) (Сезон 1-4, Серия 1-62 из 62) [2008-2013, Драма / Триллер / Детектив, Криминал, ВDRip-AVC 1080p ] [MVO] [LostFilm]

Nikolai.Baranov

12 | 22

174.56 ГБ

В этой теме нет новых непрочитанных сообщений. Во все тяжкие / Breaking Bad [s05] [Триллер, драма, криминал, 2012-2013] BDRip 720p, 2Mvo+Sub

salma3

107 | 34

42.11 ГБ

В этой теме нет новых непрочитанных сообщений. Лучше звоните Солу / Better Call Saul (Колин Бакси, Адам Бернштейн, Винс Гиллиган) Сезон 1, Серии 1-10 из 10) [2015, Драма, комедия, криминал , WEBDLRip] [MVO] [LostFilm,Kubik v Kubike,NewStudio]

Враг Нароода

0 | 2

16.27 ГБ

В этой теме нет новых непрочитанных сообщений. Особо Тяжкие Преступления / Major Crimes / 2 сезон 1-19 серии из 19 [драма, криминал, детектив, 2013] HDTVRip, Dvo [DreamRecords]

salma3

20 | 13

8.37 ГБ

В этой теме нет новых непрочитанных сообщений. Полиция Гавайев / Гавайи 5.0 / Hawaii Five-0 / 7 сезон 1-09 серии из 25 [Боевик, драма, криминал, 2016] WEB-DL 720p, Mvo [LostFilm]

salma3

0 | 0

12.99 ГБ

В этой теме нет новых непрочитанных сообщений. Стрела / Arrow / 2 сезон 1-23 серии из 23 [фантастика, боевик, драма, криминал, приключения, 2013-2014] WEB-DL 720p, Mvo [LostFilm]

salma3

12 | 3

32.92 ГБ

В этой теме нет новых непрочитанных сообщений. Красавица и чудовище / Beauty and the Beast / 2 сезон 1-22 серии из 22 [триллер, драма, криминал, детектив, 2013-2014] WEB-DLRip 720p, Mvo [LostFilm]

salma3

31 | 64

31.23 ГБ


Начать новую тему Ответить на тему  [ 1 сообщение ] 




Для Мосгорсуда, Роскомнадзора и рекламодателей:: mosgorsud-torrent[собачка]yandex.ru