Торрент файл
скачать торрент магнет ссылка Добавлен: 19 дек 2011, 22:19
Размер: 19.01 ГБ
Сидеров: 6
Личеров: 9
Автор

СообщениеДобавлено: 19 дек 2011, 22:19 

Не в сети
Супермодератор
Аватара пользователя
Дата регистрации:
11 апр 2010, 18:10
Спасибо: 5802 / 7
Сообщения: 56779
Врата,1 сезон 1-13 серии / The Gates

Перевод: Профессиональный (многоголосый, закадровый), cубтитры: отсутствуют
Формат: WEB-DL, MKV, H.264, AC3
Страна: США
Режиссер: Fred Gerber
Жанр: Ужасы, драма, мистика
Всего серий: 13
Продолжительность: 13 х 00:43
Год выпуска: 2010
В ролях: Rhona Mitra, Frank Grillo, Marisol Nichols, Luke Mably, Travis Caldwell, Skyler Samuels и др.
Описание: Главный герой — полицейский из мегаполиса, который становится начальником полиции в небольшом охраняемом пригороде, на первый взгляд кажущемся сонным местечком. Но позже выясняется, что жители пригорода — вовсе не такие, какими кажутся.
Рейтинг на :
Видео: 1280x720 (16:9), MPEG4/ISO/AVC High@L3.1, 23.976 fps, 3996 Kbps, 0.181 bit/pixe
Аудио: 48.0 kHz, AC3 Dolby Digital, 2/0 (L,R) ch, ~384 kbps
Доп. информация:

Релиз от :
Озвучка: Первый канал.
Общее
Уникальный идентификатор: 222201476599936853605171192575714602603 (0xA72A729F8D9B02FDB1381B3F7A1B2E6B)
Полное имя: D:\Фильмы\The_Gates_s01_[tfile.ru]\The_Gates_s01_e01_[tfile.ru].mkv.mkv
Формат: Matroska
Размер файла: 1,49 Гбайт
Продолжительность: 43 м.
Общий поток: 4938 Кбит/сек
Дата кодирования: UTC 2010-10-23 08:37:52
Программа кодирования: mkvmerge v4.3.0 ('Escape from the Island') сборка от Sep5 2010 10:30:51
Библиотека кодирования: libebml v1.0.0 + libmatroska v1.0.0

Видео
Идентификатор: 1
Формат: AVC
Формат/Информация: Advanced Video Codec
Профиль формата: High@L3.1
Параметр CABAC формата: Нет
Параметр ReFrames формата: 2 кадры
Идентификатор кодека: V_MPEG4/ISO/AVC
Продолжительность: 43 м.
Битрейт: 4071 Кбит/сек
Ширина: 1280 пикс.
Высота: 720 пикс.
Соотношение сторон: 16:9
Частота кадров: 23,976 кадр/сек
Цветовое пространство: YUV
Подвыборка цветности: 4:2:0
Битовая глубина: 8 бит
Тип развёртки: Прогрессивная
Бит/(Пиксели*Кадры): 0.184
Размер потока: 1,23 Гбайт (82%)
Заголовок: S01E01. Pilot
Язык: English
Основные цвета: BT.709-5, BT.1361, IEC 61966-2-4, SMPTE RP177
Характеристики трансфера: BT.709-5, BT.1361
Коэффициенты матрицы: BT.709-5, BT.1361, IEC 61966-2-4 709, SMPTE RP177

Аудио #1
Идентификатор: 2
Формат: AC-3
Формат/Информация: Audio Coding 3
Расширение режима: CM (complete main)
Идентификатор кодека: A_AC3
Продолжительность: 43 м.
Вид битрейта: Постоянный
Битрейт: 384 Кбит/сек
Канал(ы): 2 канала(ов)
Расположение каналов: Front: L R
Частота: 48,0 КГц
Битовая глубина: 16 бит
Метод сжатия: С потерями
Размер потока: 119 Мбайт (8%)

Аудио #2
Идентификатор: 3
Формат: AC-3
Формат/Информация: Audio Coding 3
Расширение режима: CM (complete main)
Идентификатор кодека: A_AC3
Продолжительность: 43 м.
Вид битрейта: Постоянный
Битрейт: 384 Кбит/сек
Канал(ы): 6 канала(ов)
Расположение каналов: Front: L C R, Side: L R, LFE
Частота: 48,0 КГц
Битовая глубина: 16 бит
Метод сжатия: С потерями
Размер потока: 119 Мбайт (8%)














Поделиться:




реклама партнёра


Вернуться к началу
 Профиль Отправить личное сообщение  
 
   Похожие торренты   Автор   Торрент   Размер 
В этой теме нет новых непрочитанных сообщений. Волчонок / Teen Wolf / 4 сезон 1-12 серии из 12 [Мистика, драма, приключения, 2014] WEB-DLRip, Mvo [VO-production]

salma3

485 | 143

4.68 ГБ

В этой теме нет новых непрочитанных сообщений. Волчонок / Teen Wolf / 3 сезон 1-24 серии из 24 [Мистика, драма, приключения, комедия,2013] WEB-DLRip, mvo

salma3

581 | 244

9.22 ГБ

В этой теме нет новых непрочитанных сообщений. Волчонок / Teen Wolf / 4 сезон 1-12 серии из 12 [Мистика, драма, приключения, комедия, 2014] WEB-DL 720р, Mvo [VO-production]

salma3

148 | 63

13.52 ГБ

В этой теме нет новых непрочитанных сообщений. Волчонок / Teen Wolf / 5 сезон 1-6 серии из 20 [Мистика, драма, приключения, комедия, 2015] HDTVRip, Mvo [RG.Paravozik]

salma3

27 | 31

2.88 ГБ

В этой теме нет новых непрочитанных сообщений. Древние / Первородные / The originals / 1 сезон 1-22 серии из 22 [мистика, фантастика, боевик, драма, приключения, 2013-2014] WEB-DLRip, Dvo [Кубик в Кубе]

salma3

142 | 46

12.82 ГБ

В этой теме нет новых непрочитанных сообщений. Исполнитель желаний 3: Камень Дьявола / Wishmaster 3: Beyond the Gates of Hell [фэнтези, ужасы, 2001] WEB-DL 720p, Mvo

salma3

52 | 9

3.13 ГБ

В этой теме нет новых непрочитанных сообщений. Под куполом / Under The Dome / 2 сезон 1-13 серии из 13 [фантастика, драма, ужасы, 2014] WEB-DLRip, Mvo [BaibaKo]

salma3

114 | 31

7.09 ГБ


Начать новую тему Ответить на тему  [ 1 сообщение ] 




Для Мосгорсуда, Роскомнадзора и рекламодателей:: mosgorsud-torrent[собачка]yandex.ru