Торрент файл
скачать торрент магнет ссылка Добавлен: 19 дек 2011, 22:11
Размер: 12.9 ГБ
Сидеров: 1
Личеров: 5
Автор

СообщениеДобавлено: 19 дек 2011, 22:11 

Не в сети
Супермодератор
Аватара пользователя
Дата регистрации:
11 апр 2010, 18:10
Спасибо: 5802 / 7
Сообщения: 56779
[b]Дневники Вампира, 3 сезон 1-9 серии / The Vampire Diaries[/b]


Перевод: Профессиональный (двухголосый, закадровый) Кубик в Кубе, cубтитры: отсутствуют
Слоган: «Любовь Отстой»
Формат: WEB-DL 720p, MKV, H.264/AVC, AC3
Страна: США / Warner Bros. Television
Режиссер: Крис Грисмер, Венди Станцлер, Маркос Сига
Жанр: Ужасы, Фэнтези, Мелодрама, Драма
Всего серий: 22
Продолжительность: 9 х 00:43
Год выпуска: 2011

В ролях: Нина Добрев, Пол Уэсли, Иен Сомерхолдер, Стивен Р. МакКуин, Катерина Грэхэм, Кэндис Аккола, Зак Рериг, Сара Каннинг, Майкл Тревино, Мэттью Дэвис, Бенджамин Эйрс, Стив Белфорд, Кайла Юэлл, Марси Т. Хаус

Описание: Спустя четыре месяца после трагической автокатастрофы, которая унесла жизни родителей, 17-летняя Елена Гилберт (Нина Добрев) и её 15-летний брат Джереми (Стивен МакКуин) все еще пытаются справиться с постигшим их горем и двигаться дальше. Елена всегда была звездой школы, красивая и популярная, она была вовлечена в жизни друзей и школы, но сейчас она пытается скрыть свою печаль от мира. С началом учебного года, Елена и её подруги очарованы красивым и таинственным студентом, Стефаном Сальваторе (Пол Уэсли). Стефана и Елену сразу же тянет друг к другу, но она не знает, что Стефан - вампир, который изо всех сил старается жить мирно среди людей, в то время, как его брат Дэймон (Ян Сомерхалдер) является воплощением насилия и жестокости. И теперь эти два брата-вампира, один плохой, другой хороший, начинают войну за душу Елены и души её друзей, родственников и всех жителей маленького городка Мистик Фоллс в штате Вирджиния..

Рейтинг:


Видео: 1280x720 (16:9), MPEG4/ISO/AVC, High@L3.1, 23.976 fps, ~4144 kbps avg, 0.188 bit/pixel
Аудио Rus: 48.0 kHz, AC3 Dolby Digital, 3/2 (L, C, R, l, r) + LFE ch, ~384.00 kbps avg
Аудио Eng: 48.0 kHz, AC3 Dolby Digital, 3/2 (L, C, R, l, r) + LFE ch, ~384.00 kbps avg

Релиз:


Озвучка: Кубик в Кубе
Перевод: Мекс [RG Translators]


Общее
Уникальный идентификатор: 244040342364241117252637766436033553238 (0xB79875D634D78EB193DEFF8944026356)
Полное имя: D:\кино\сериалы\the_vampire_diaries_s03e03-06_[tfile.ru]\the_vampire_diaries_s03e03_[tfile.ru].mkv
Формат: Matroska
Версия формата: Version 1
Размер файла: 1,49 Гбайт
Продолжительность: 42 м.
Общий поток: 5011 Кбит/сек
Название фильма: The Vampire Diaries S03E03 The End Of The Affair 720p WEB-DL DD5.1 H.264-KiNGS
Дата кодирования: UTC 2011-10-01 14:13:19
Программа кодирования: mkvmerge v2.3.0 ('Freak U') built on Sep8 2008 18:32:16
Библиотека кодирования: libebml v0.7.7 + libmatroska v0.8.1

Видео
Идентификатор: 1
Формат: AVC
Формат/Информация: Advanced Video Codec
Профиль формата: High@L3.1
Параметр CABAC формата: Нет
Параметр ReFrames формата: 2 кадра
Идентификатор кодека: V_MPEG4/ISO/AVC
Продолжительность: 42 м.
Битрейт: 4144 Кбит/сек
Ширина: 1280 пикселей
Высота: 720 пикселей
Соотношение сторон: 16:9
Частота кадров: 23,976 кадра/сек
Цветовое пространство: YUV
Субдискретизация насыщенности: 4:2:0
Битовая глубина: 8 бит
Тип развёртки: Прогрессивная
Бит/(Пиксели*Кадры): 0.188
Размер потока: 1,23 Гбайт (83%)
Язык: English
Основные цвета: BT.709-5, BT.1361, IEC 61966-2-4, SMPTE RP177
Характеристики трансфера: BT.709-5, BT.1361
Коэффициенты матрицы: BT.709-5, BT.1361, IEC 61966-2-4 709, SMPTE RP177

Аудио #1
Идентификатор: 2
Формат: AC-3
Формат/Информация: Audio Coding 3
Расширение режима: CM (complete main)
Идентификатор кодека: A_AC3
Продолжительность: 42 м.
Вид битрейта: Постоянный
Битрейт: 384 Кбит/сек
Каналы: 6 каналов
Расположение каналов: Front: L C R, Side: L R, LFE
Частота: 48,0 КГц
Битовая глубина: 16 бит
Метод сжатия: С потерями
Размер потока: 117 Мбайт (8%)
Язык: Russian

Аудио #2
Идентификатор: 3
Формат: AC-3
Формат/Информация: Audio Coding 3
Расширение режима: CM (complete main)
Идентификатор кодека: A_AC3
Продолжительность: 42 м.
Вид битрейта: Постоянный
Битрейт: 384 Кбит/сек
Каналы: 6 каналов
Расположение каналов: Front: L C R, Side: L R, LFE
Частота: 48,0 КГц
Битовая глубина: 16 бит
Метод сжатия: С потерями
Размер потока: 117 Мбайт (8%)
Язык: English












Внимание! Раздача ведётся путём добавления новых серий; при каждом добавлении создётся новый торрент. Чтобы начать докачку новой серии, пользователям необходимо сделать следующее:
(1) остановить скачивание,
(2) удалить старый торрент у себя из клиента (старые серии удалять не надо),
(3) скачать новый торрент и запустить его у себя в клиенте вместо старого, при этом указать клиенту путь в старую папку куда и должно происходить скачивание новых серий.

Ваш клиент при этом должен произвести хеширование (проверку) старой папки (если не производит сам - помогите ему сделать это), и будет докачивать только те серии которых у вас ещё нет. Старые серии при этом не удаляются, а продолжают раздаваться!

Eсли вы уже удалили старые серии, то предотвратить повторную закачку старых серий можно, отжав галочку в соответсвующих местах при запуске нового торрента. По возможности, желательно не удалять старые серии как можно дольше чтобы релизёр не столько продолжал раздавать старые серии, а смог сконцентрироваться на новых.

ВНИМАНИЕ!! Добавлена 9-ая серия 15.11.11, перезакачайте торрент!!
Поделиться:




реклама партнёра


Вернуться к началу
 Профиль Отправить личное сообщение  
 
   Похожие торренты   Автор   Торрент   Размер 
В этой теме нет новых непрочитанных сообщений. Дневники Вампира / The Vampire Diaries / 6 сезон 1-22 серии из 22 [ужасы, фэнтези, мелодрама, драма, 2014] WEB-DLRip, Dvo [Кубик в Кубе]

salma3

99 | 216

12.54 ГБ

В этой теме нет новых непрочитанных сообщений. Дневники вампира / The Vampire Diaries [07х01-05 из 22] (Маркос Сига, Крис Грисмер, Венди Станцлер) [2015, ужасы, фэнтези, драма, мелодрама, HDTV 720p | Jaskier]

Nickolas3435

63 | 120

4.63 ГБ

В этой теме нет новых непрочитанных сообщений. Дневники вампира / The Vampire Diaries [07х01-06] (Маркос Сига, Крис Грисмер) [2015, Драма, фантастика, WEB-DL 1080p | LostFilm]

Dracon

53 | 581

10.68 ГБ

В этой теме нет новых непрочитанных сообщений. Дневники вампира / The Vampire Diaries [07х01-08] (Маркос Сига, Крис Грисмер) [2015, Драма, фантастика, WEB-DL 1080p | LostFilm]

Dracon

61 | 304

14.25 ГБ

В этой теме нет новых непрочитанных сообщений. Дневники Вампира / The Vampire Diaries / 7 сезон 1-22 серии из 22 (Маркос Сига, Роб Харди, Дэвид Фон Энкен, Дж. Миллер Тобин) [2015, ужасы, фэнтези, триллер, драма, мелодрама, детектив, WEB-DLRip | LostFilm]

Dracon

316 | 265

8.29 ГБ

В этой теме нет новых непрочитанных сообщений. Дневники Вампира / The Vampire Diaries [06x01-12] (Маркос Сига, Элизабет Аллен) [2014, Ужасы, фэнтези, драма, мелодрама, HDTV 720p | ColdFilm]

Nickolas3435

16 | 94

10.98 ГБ

В этой теме нет новых непрочитанных сообщений. Дневники Вампира / The Vampire Diaries [06x01-03] (Маркос Сига, Элизабет Аллен) [2014, Ужасы, фэнтези, драма, мелодрама, HDTV 720p | ColdFilm]

Nickolas3435

99 | 194

2.79 ГБ


Начать новую тему Ответить на тему  [ 1 сообщение ] 




Для Мосгорсуда, Роскомнадзора и рекламодателей:: mosgorsud-torrent[собачка]yandex.ru