Торрент файл
скачать торрент магнет ссылка Добавлен: 19 дек 2011, 22:08
Размер: 8.65 ГБ
Сидеров: 4
Личеров: 2
Автор

СообщениеДобавлено: 19 дек 2011, 22:08 

Не в сети
Супермодератор
Аватара пользователя
Дата регистрации:
11 апр 2010, 18:10
Спасибо: 5802 / 7
Сообщения: 56779
Уилфред, 1 сезон 1-13 серия из 13 / Wilfred

Перевод: Профессиональный (многоголосый, закадровый), cубтитры: отсутствуют
Формат: WEB-DL, MKV, H.264, AC3
Страна: США
Режиссер: Рэндалл Эйнхорн
Жанр: Комедия
Всего серий: 13
Продолжительность: 13 х 00:23
Год выпуска: 2011

В ролях: Джейсон Ганн,Элайджа Вуд,Фиона Габелманн,Андреа Сэведж,Dorian Brown и др.

Описание: Каждый скажет, взглянув на Уилфреда, что он — обычный пес. Но не Райан. Райану кажется, что это грубый, ворчливый, угрюмый, но при этом безусловно честный и смелый австралийский парень в дешевом костюме собаки. Уилфред помогает Райану понять, каково его место в мире и как преодолеть собственные страхи на пути к достижению своей цели.

Рейтинг: ,

Видео: 1280х720, (16/9), 23,976 fps, V_MPEG4/ISO/AVC, High@L3.1, ~4041 kbps avg, 0.184 bit/pixel
Аудио: 48 kHz, AC3 Dolby Digital, 2/0 (L,R) ch, ~384 kbps

Релиз от:
Сценарий: Tony Rogers, Джейсон Ганн, Сиверт Гларум, Eli Jorne, David Baldy (все)
Продюсер: Gabrielle Wallack, Сиверт Гларум, Ken Connor, Joe Connor, Майкл Джамин (все)
Оператор: Brad Lipson
Композитор: Джеймс Дули

Общее
Уникальный идентификатор: 240471297687257641240186307787890888413 (0xB4E916592BFF3E2FBEACCBFD01800EDD)
Полное имя: E:\Фильмы\Wilfred_s01_[tfile.ru]\Wilfred_s01_e01_[tfile.ru].mkv
Формат: Matroska
Размер файла: 740 Мбайт
Продолжительность: 23 м.
Общий поток: 4426 Кбит/сек
Дата кодирования: UTC 2011-08-29 11:19:01
Программа кодирования: mkvmerge v4.2.0 ('No Talking') сборка от Jul 28 2010 18:38:23
Библиотека кодирования: libebml v1.0.0 + libmatroska v1.0.0

Видео
Идентификатор: 1
Формат: AVC
Формат/Информация: Advanced Video Codec
Профиль формата: High@L3.1
Параметр CABAC формата: Да
Параметр ReFrames формата: 4 кадры
Параметры GOP формата: M=2, N=4
Идентификатор кодека: V_MPEG4/ISO/AVC
Продолжительность: 23 м.
Битрейт: 4041 Кбит/сек
Ширина: 1280 пикс.
Высота: 720 пикс.
Соотношение сторон: 16:9
Частота кадров: 23,976 кадр/сек
Цветовое пространство: YUV
Подвыборка цветности: 4:2:0
Битовая глубина: 8 бит
Тип развёртки: Прогрессивная
Бит/(Пиксели*Кадры): 0.183
Размер потока: 661 Мбайт (89%)
Библиотека кодирования: x264 core 107 r1745 4785e8e
Настройки программы: cabac=1 / ref=3 / deblock=1:0:0 / analyse=0x3:0x113 / me=hex / subme=7 / psy=1 / psy_rd=1.00:0.00 / mixed_ref=1 / me_range=16 / chroma_me=1 / trellis=1 / 8x8dct=1 / cqm=0 / deadzone=21,11 / fast_pskip=1 / chroma_qp_offset=-2 / threads=4 / sliced_threads=0 / nr=0 / decimate=1 / interlaced=0 / constrained_intra=0 / bframes=3 / b_pyramid=2 / b_adapt=1 / b_bias=0 / direct=1 / weightb=1 / open_gop=0 / weightp=2 / keyint=250 / keyint_min=25 / scenecut=40 / intra_refresh=0 / rc_lookahead=40 / rc=2pass / mbtree=1 / bitrate=4041 / ratetol=1.0 / qcomp=0.60 / qpmin=10 / qpmax=51 / qpstep=4 / cplxblur=20.0 / qblur=0.5 / ip_ratio=1.40 / aq=1:1.00

Аудио
Идентификатор: 2
Формат: AC-3
Формат/Информация: Audio Coding 3
Расширение режима: CM (complete main)
Идентификатор кодека: A_AC3
Продолжительность: 23 м.
Вид битрейта: Постоянный
Битрейт: 384 Кбит/сек
Канал(ы): 2 канала(ов)
Расположение каналов: Front: L R
Частота: 44,1 КГц
Битовая глубина: 16 бит
Метод сжатия: С потерями
Размер потока: 64,2 Мбайт (9%)
Язык: Russian








Не забываем голосовать за наш сайт здесь: и здесь:



Внимание!Добавлена 13-ая серия 23.11.2011 ,перезалейте торрент.
Поделиться:




реклама партнёра


Вернуться к началу
 Профиль Отправить личное сообщение  
 
   Похожие торренты   Автор   Торрент   Размер 
В этой теме нет новых непрочитанных сообщений. Уилфред / Wilfred [S03] [Комедия, 2013] WEB-DLRip, Dvo [Кубик в Кубе]

Dracon

66 | 16

5.77 ГБ

В этой теме нет новых непрочитанных сообщений. Уилфред / Wilfred [04x01-10 из 10] [Комедия, 2014] WEB-DLRip, Dvo [Кубик в Кубе]

Dracon

113 | 81

1.94 ГБ

В этой теме нет новых непрочитанных сообщений. Салем / Salem / 3 сезон 1-05 серии из 13 [фантастика, триллер, драма, 2016] WEB-DL 720p, Mvo [LostFilm]

salma3

0 | 0

8.21 ГБ

В этой теме нет новых непрочитанных сообщений. Нация Z / Z Nation / 3 сезон 1-13 серии из 14 [Боевик, Драма, Ужасы, Фантастика,, 2016] WEB-DL 720p, Mvo [LostFilm]

salma3

24 | 162

18.57 ГБ

В этой теме нет новых непрочитанных сообщений. Полиция Гавайев / Гавайи 5.0 / Hawaii Five-0 / 7 сезон 1-09 серии из 25 [Боевик, драма, криминал, 2016] WEB-DL 720p, Mvo [LostFilm]

salma3

0 | 0

12.99 ГБ

В этой теме нет новых непрочитанных сообщений. Ведьмы Ист-Энда / Witches of East End / 1 сезон 1-10 серии из 10 [фэнтези, драма, 2013] WEB-DLRip 720p, Mvo [LostFilm]

salma3

84 | 57

14.1 ГБ

В этой теме нет новых непрочитанных сообщений. Стрела / Arrow / 2 сезон 1-23 серии из 23 [фантастика, боевик, драма, криминал, приключения, 2013-2014] WEB-DL 720p, Mvo [LostFilm]

salma3

12 | 3

32.92 ГБ


Начать новую тему Ответить на тему  [ 1 сообщение ] 




Для Мосгорсуда, Роскомнадзора и рекламодателей:: mosgorsud-torrent[собачка]yandex.ru