Торрент файл
скачать торрент магнет ссылка Добавлен: 19 дек 2011, 22:04
Размер: 17.88 ГБ
Сидеров: 16
Личеров: 8
Автор

СообщениеДобавлено: 19 дек 2011, 22:04 

Не в сети
Супермодератор
Аватара пользователя
Дата регистрации:
11 апр 2010, 18:10
Спасибо: 5801 / 7
Сообщения: 56779
Быть человеком, 1 сезон 1-13 серии / Being Human

Перевод: Профессиональный (многоголосый, закадровый), cубтитры: отсутствуют
Формат: WEB-DL, MKV, H.264, AC3
Страна: Канада
Режиссер: Адам Кэйн
Жанр: Драма, триллер, детектив
Всего серий: 13
Продолжительность: 13 х 00:44
Год выпуска: 2011

В ролях: Сэм Уитуэр, Миган Рат, Сэм Хантингтон, Gianpaolo Venuta, Марк Пеллегрино, Винсент Леклерк, Сара Аллен, Кристен Хагер, Анджела Галуппо и др.

Описание: Новый американский сериал - увлекательная истории о трех существах, которых мы, люди, привыкли воспринимать с опаской. Однако удивительная троица: вампир, оборотень и привидение, - проживающая в одном доме, едва ли способна обидеть даже ребенка. Всеми силами герои стремятся выйти за границы тех образов, которыми их «наградили» люди. Вампир не злоупотребляет кровавыми напитками, оборотень с ужасом и нескрываемым душевным волнением ожидает наступления полнолуния, приведение - вообще примерный семьянин и хранитель домашнего очага, пугающийся каждого шороха. Помимо бесконечного сокрытия собственной противоестественности, друзья умело решают самые что ни на есть земные задачи. Они ведут расследования. Умелое разрешение детективных загадок позволяет приятелям сглаживать сложности двойной жизни. «Быть человеком» - это жанровое ассорти из мистики и детектива, в лучших традициях качественного сериала, когда каждая серия до последней минуты держит зрителя в состоянии острого напряжения.

Рейтинг на IMDB:

Видео: 1280х720, (16/9), 23,976 fps, V_MPEG4/ISO/AVC, High@L3.1, ~4041 kbps avg, 0.183 bit/pixel
Аудио: 44,1 kHz, AC3 Dolby Digital, 2/0 (L,R) ch, ~384 kbps

Доп. информация: Сценарий: Тоби Уайтхауз, Анна Фрике, Nancy Won, Jeremy Carver, Chris Dingess
Продюсер: Elissa Lewis, Адам Кэйн, Эван Тассман, Irene Litinsky, Анна Фрике (все)
Оператор: Пьер Жодуан
Композитор: FM Le Sieur
Релиз от:
Слоган сериала:«Being human is harder than it looks.»
Общее
Уникальный идентификатор: 203914192426623895649507269151447324025 (0x996871E6CD1EB5F7860A998C966C1579)
Полное имя: E:\Фильмы\Being_Human_s01_[tfile.ru]\Being_Human_s01_e01_[tfile.ru].mkv
Формат: Matroska
Размер файла: 1,38 Гбайт
Продолжительность: 44 м.
Общий поток: 4427 Кбит/сек
Дата кодирования: UTC 2011-08-28 14:39:00
Программа кодирования: mkvmerge v4.2.0 ('No Talking') сборка от Jul 28 2010 18:38:23
Библиотека кодирования: libebml v1.0.0 + libmatroska v1.0.0

Видео
Идентификатор: 1
Формат: AVC
Формат/Информация: Advanced Video Codec
Профиль формата: High@L3.1
Параметр CABAC формата: Да
Параметр ReFrames формата: 4 кадры
Параметры GOP формата: M=2, N=4
Идентификатор кодека: V_MPEG4/ISO/AVC
Продолжительность: 44 м.
Битрейт: 4041 Кбит/сек
Ширина: 1280 пикс.
Высота: 720 пикс.
Соотношение сторон: 16:9
Частота кадров: 23,976 кадр/сек
Цветовое пространство: YUV
Подвыборка цветности: 4:2:0
Битовая глубина: 8 бит
Тип развёртки: Прогрессивная
Бит/(Пиксели*Кадры): 0.183
Размер потока: 1,23 Гбайт (89%)
Библиотека кодирования: x264 core 107 r1745 4785e8e
Настройки программы: cabac=1 / ref=3 / deblock=1:0:0 / analyse=0x3:0x113 / me=hex / subme=7 / psy=1 / psy_rd=1.00:0.00 / mixed_ref=1 / me_range=16 / chroma_me=1 / trellis=1 / 8x8dct=1 / cqm=0 / deadzone=21,11 / fast_pskip=1 / chroma_qp_offset=-2 / threads=4 / sliced_threads=0 / nr=0 / decimate=1 / interlaced=0 / constrained_intra=0 / bframes=3 / b_pyramid=2 / b_adapt=1 / b_bias=0 / direct=1 / weightb=1 / open_gop=0 / weightp=2 / keyint=250 / keyint_min=25 / scenecut=40 / intra_refresh=0 / rc_lookahead=40 / rc=2pass / mbtree=1 / bitrate=4041 / ratetol=1.0 / qcomp=0.60 / qpmin=10 / qpmax=51 / qpstep=4 / cplxblur=20.0 / qblur=0.5 / ip_ratio=1.40 / aq=1:1.00

Аудио
Идентификатор: 2
Формат: AC-3
Формат/Информация: Audio Coding 3
Расширение режима: CM (complete main)
Идентификатор кодека: A_AC3
Продолжительность: 44 м.
Вид битрейта: Постоянный
Битрейт: 384 Кбит/сек
Канал(ы): 2 канала(ов)
Расположение каналов: Front: L R
Частота: 44,1 КГц
Битовая глубина: 16 бит
Метод сжатия: С потерями
Размер потока: 122 Мбайт (9%)
Язык: Russian










Не забываем голосовать за наш сайт здесь: и здесь:



Внимание! Добалена 13 -ая серия, 01.12.2011 перезалейте торрент!
Поделиться:




реклама партнёра


Вернуться к началу
 Профиль Отправить личное сообщение  
 
   Похожие торренты   Автор   Торрент   Размер 
В этой теме нет новых непрочитанных сообщений. Быть Человеком / Being Human (USA) [S04] (Паоло Барзмен, Адам Кэйн, Стефан Плещински) [2014, ужасы, фантастика, фэнтези, драма, WEB-DLRip | LostFilm]

Dracon

12 | 2

7.57 ГБ

В этой теме нет новых непрочитанных сообщений. Реанимация / Code Black [01х01-15 из 18] (Адам Кэйн, Крис Мисиано) [2015, Триллер, драма, детектив, WEB-DL 720p | Amedia]

Nickolas3435

3 | 2

20.27 ГБ

В этой теме нет новых непрочитанных сообщений. Раскалённая Луна / High Moon (Адам Кэйн) [2014, фантастика, триллер, драма, HDTV 720p] dvo

Nickolas3435

567 | 19

1.79 ГБ

В этой теме нет новых непрочитанных сообщений. Реанимация / Code Black [S01] (Адам Кэйн, Крис Мисиано) [2015, Триллер, драма, детектив, WEB-DLRip | Amedia]

Nickolas3435

0 | 0

7.69 ГБ

В этой теме нет новых непрочитанных сообщений. Красавица и чудовище / Beauty and the Beast / 2 сезон 1-22 серии из 22 [триллер, драма, криминал, детектив, 2013-2014] WEB-DLRip 720p, Mvo [LostFilm]

salma3

31 | 64

31.23 ГБ

В этой теме нет новых непрочитанных сообщений. Во все тяжкие / Breaking Bad( Адам Бернштейн, Брайан Крэнстон) (Сезон 1-4, Серия 1-62 из 62) [2008-2013, Драма / Триллер / Детектив, Криминал, ВDRip-AVC 1080p ] [MVO] [LostFilm]

Nikolai.Baranov

12 | 22

174.56 ГБ

В этой теме нет новых непрочитанных сообщений. Реанимация / Code Black [S01] (Ли Роуз, Дэвид Семел, Адам Кэйн) [2015, Драма, WEB-DL 720p | BaibaKo]

Dracon

41 | 54

14.33 ГБ


Начать новую тему Ответить на тему  [ 1 сообщение ] 




Для Мосгорсуда, Роскомнадзора и рекламодателей:: mosgorsud-torrent[собачка]yandex.ru