Торрент файл
скачать торрент магнет ссылка Добавлен: 18 дек 2011, 23:10
Размер: 272.55 МБ
Сидеров: 3
Личеров: 6
Автор

СообщениеДобавлено: 18 дек 2011, 23:10 

Не в сети
Супермодератор
Аватара пользователя
Дата регистрации:
11 апр 2010, 18:10
Спасибо: 5799 / 7
Сообщения: 56779
Теория Большого Взрыва, 4 сезон 10 серия / The Big Bang Theory

Перевод: Профессиональный (одноголосый), cубтитры: есть (русские, английские)
Формат: WEB-DLRip, MKV, H.264, AC3
Страна: США
Режиссер: Джеймс Берроуз, Марк Сендровски
Жанр: комедия
Всего серий: 23
Продолжительность: 00:20:11
Год выпуска: 2010

В ролях: Джонни Галекки, Джим Парсонс, Кейли Куоко, Саймон Хельберг, Кунал Найяр

Описание: Два блестящих физика, Леонард и Шелдон, «великие умы», которые понимают как «работает вселенная». Но их гениальность ничуть не помогает им общаться с людьми, особенно с женщинами. Всё начинает меняться, когда напротив них поселяется красавица Пенни.
Когда Леонард и Шелдон встречают Пенни, Леонард сразу же начинает интересоваться ею. Он видит в общении с Пенни огромную перспективу…, вплоть до любви, однако Шелдон понимает, что мечтам его друга не суждено сбыться.
Стоит также отметить пару странных друзей этих физиков: Говард Воловиц, который любит употреблять фразы на разных языках, включая русский и Раждеш Кутрапали, теряющий дар речи при виде женщин.


Рейтинг на IMDB: 8.8 / 10

Видео: 720 Х 400 (16:9), 23.976 fps, MPEG4 AVC (x264) High@L3.0, 1273 kbps avg, 0.18 bit/pixel
Аудио 1: 48 kHz, AC3, 2 ch, 192.00 kbps avg (русский)
Аудио 2: 48 kHz, AC3, 5.1 ch, 384.00 kbps avg (английский)

Доп. информация:
В каждой серии на ремне Говарда Воловица (Саймон Хелберг) можно увидеть новую пряжку, связанную чаще всего с персонажами комиксов, фильмов, сериалов и т.д. (например, в одном из эпизодов - это летучая мышь, символ Бэтмена).

Озвучка: Kuraj-Bambey

Название серии: The Alien Parasite Hypothesis

Первый и второй сезоны: http://tfile.ru/forum/viewtopic.php?t=246359
Третий сезон: http://tfile.ru/forum/viewtopic.php?t=328283
Четвертый сезон серии 1-9: http://tfile.ru/forum/viewtopic.php?t=360296

[/field]

General
Complete name : E:\The_Big_Bang_Theory_S04E10_[tfile.ru].mkv
Format : Matroska
File size : 273 MiB
Duration : 20mn 11s
Overall bit rate : 1 887 Kbps
Encoded date : UTC 2010-12-11 21:24:47
Writing application : mkvmerge v4.0.0 ('The Stars were mine') сборка от Jun6 2010 16:18:42
Writing library : libebml v1.0.0 + libmatroska v1.0.0
Video #1
ID : 1
Format : AVC
Format/Info : Advanced Video Codec
Format profile : High@L3.0
Format settings, CABAC : Yes
Format settings, ReFrames : 4 frames
Muxing mode : Container profile=Unknown@3.0
Codec ID : V_MPEG4/ISO/AVC
Duration : 20mn 10s
Bit rate : 1 273 Kbps
Width : 720 pixels
Height : 400 pixels
Display aspect ratio : 16:9
Frame rate : 23.976 fps
Original frame rate : 25.000 fps
Resolution : 24 bits
Colorimetry : 4:2:0
Scan type : Progressive
Bits/(Pixel*Frame) : 0.184
Stream size : 184 MiB (67%)
Writing library : x264 core 98 r1649 20cbe10
Encoding settings : cabac=1 / ref=4 / deblock=1:0:0 / analyse=0x3:0x112 / me=tesa / subme=9 / psy=1 / psy_rd=1.00:0.00 / mixed_ref=1 / me_range=16 / chroma_me=1 / trellis=2 / 8x8dct=1 / cqm=0 / deadzone=21,11 / fast_pskip=1 / chroma_qp_offset=-2 / threads=6 / sliced_threads=0 / nr=0 / decimate=1 / interlaced=0 / constrained_intra=0 / bframes=3 / b_pyramid=0 / b_adapt=2 / b_bias=0 / direct=3 / weightb=0 / weightp=2 / keyint=150 / keyint_min=1 / scenecut=33 / intra_refresh=0 / rc=cqp / mbtree=0 / qp=18 / ip_ratio=1.40 / pb_ratio=1.30 / aq=0
Audio #2
ID : 2
Format : AC-3
Format/Info : Audio Coding 3
Codec ID : A_AC3
Duration : 20mn 11s
Bit rate mode : Constant
Bit rate : 192 Kbps
Channel(s) : 2 channels
Channel positions : L R
Sampling rate : 48.0 KHz
Stream size : 27.7 MiB (10%)
Title : Кураж-Бамбей
Language : Russian
Audio #3
ID : 3
Format : AC-3
Format/Info : Audio Coding 3
Codec ID : A_AC3
Duration : 20mn 11s
Bit rate mode : Constant
Bit rate : 384 Kbps
Channel(s) : 6 channels
Channel positions : Front: L C R, Surround: L R, LFE
Sampling rate : 48.0 KHz
Stream size : 55.5 MiB (20%)
Text #4
ID : 4
Format : UTF-8
Codec ID : S_TEXT/UTF8
Codec ID/Info : UTF-8 Plain Text
Title : Суверенный Лепрозорий
Language : Russian
Text #5
ID : 5
Format : UTF-8
Codec ID : S_TEXT/UTF8
Codec ID/Info : UTF-8 Plain Text
Title : notabenoid.com
Language : Russian
Text #6
ID : 6
Format : UTF-8
Codec ID : S_TEXT/UTF8
Codec ID/Info : UTF-8 Plain Text






Поделиться:




реклама партнёра


Вернуться к началу
 Профиль Отправить личное сообщение  
 
   Похожие торренты   Автор   Торрент   Размер 
В этой теме нет новых непрочитанных сообщений. Теория большого взрыва / The Big Bang Theory [S01-09] [комедия, ситком, 2007-2016] BDRip, WEB-DLRip, Avo [Кураж-Бамбей]

marya111

0 | 0

48.35 ГБ

В этой теме нет новых непрочитанных сообщений. Теория большого взрыва / The Big Bang Theory [S01-08] (Марк Сендроуски, Энтони Джозеф Рич, Питер Чакос) [Комедия, 2007–2015] WEB-DLRip [Кураж-Бамбей]

Dracon

256 | 517

34.59 ГБ

В этой теме нет новых непрочитанных сообщений. Теория большого взрыва / The Big Bang Theory [10х01-08 из 24] (Комедия, 2016) HDTVRip 720p | LevshaFilm

marya111

0 | 0

3.54 ГБ

В этой теме нет новых непрочитанных сообщений. Теория большого взрыва / The Big Bang Theory [10x01-06 из 24] (Ситком, комедия, 2016) HDTVRip | IdeaFilm

marya111

13 | 18

1.53 ГБ

В этой теме нет новых непрочитанных сообщений. Теория большого взрыва / The Big Bang Theory [10x01-04 из 24] [Ситком, комедия, 2016] HDTVRip, Mvo [IdeaFilm]

marya111

10 | 12

1.01 ГБ

В этой теме нет новых непрочитанных сообщений. Теория большого взрыва / The Big Bang Theory [10x01-09 из 24] (2016) HDTVRip | IdeaFilm

marya111

12 | 18

2.32 ГБ

В этой теме нет новых непрочитанных сообщений. Теория большого взрыва / The Big Bang Theory [10x01-09 из 24] (2016) HDTV 720p | IdeaFilm

marya111

26 | 23

5.83 ГБ


Начать новую тему Ответить на тему  [ 1 сообщение ] 




Для Мосгорсуда, Роскомнадзора и рекламодателей:: mosgorsud-torrent[собачка]yandex.ru