Торрент файл
скачать торрент магнет ссылка Добавлен: 18 дек 2011, 22:44
Размер: 1.4 ГБ
Сидеров: 0
Личеров: 5
Автор

СообщениеДобавлено: 18 дек 2011, 22:44 

Не в сети
Супермодератор
Аватара пользователя
Дата регистрации:
11 апр 2010, 18:10
Спасибо: 5799 / 7
Сообщения: 56779
Визитеры, 2 сезон 3 серия / Visitors

Перевод: Профессиональный (многоголосый, закадровый), cубтитры: отсутствуют
Формат: HDTVRip, MKV, H.264/AVC, AC3

Страна: США

Режиссер: Ив Симоно,Фред Туа

Жанр: фантастика, драма

Всего серий: 10

Продолжительность: 00:41:32

Год выпуска: 2011

В ролях: Элизабет Митчелл, Джоэль Гретш, Лаура Вандервурт, Логан Хаффман, Лурдес Бенедикто, Морена Баккарин, Моррис Честнат, Скотт Вулф, ...

Описание: Сегодня весь мир проснулся и увидел, что над каждым городом парят космические корабли. Прибывшие утверждают что пришли с миром, и предлагают подарки в виде медицинских открытий и технологических усовершенствований. Они обещают, что не навредят. Они лгут. Большинство человечества верит, что чужие прибыли как раз тогда, когда мы в них нуждались. Люди с радостью принимают их помощь.

Но во время расследования террористической ячейки агент госбезопасности Эрика Эванс обнаруживает нечто вовсе не безобидное. Когда ее напарник пытается ее убить, Эрика обнаруживает, что пришельцы планируют внедриться в правительства и крупные корпорации, чтобы в будущем захватить все человечество. Но убедить в этом остальных практически невозможно, ведь в руках пришельцев два мощных козыря. Во-первых, они завоевали веру и любовь людей, благодаря своим подаркам. Во-вторых, они взяли под контроль почти всех подростков.

Тысячи подростков, включая сына Эрики, были назначены «послами мира», но на самом деле они шпионят для пришельцев, не подозревая об этом. Эрика вынуждена вступить в движение сопротивления, где она знакомится с Райаном, пришельцем, который хочет спасти человечество. Эрике придется находить равновесие между сопротивлением, работой, и заботой о своем сыне, который принял сторону врагов.


Рейтинг на IMDB: 7.6/10

Видео: 1280x720 (16/9), 24 fps, AVC, High@L3.1, 4041 Кбит/сек, 0.183 bit/pixel

Аудио: 48,0 КГц , AC-3 , Front: L R , 384 Кбит/сек

Доп. информация: Перевод и озвучка:студия "Кравец"





Общее
Уникальный идентификатор: 211839359053933241091391639845306274822 (0x9F5EC6C8B731447E9D07719DE58A9406)
Полное имя: C:\Users\Alexa_cocacola\Downloads\Vizitery_s02e03_[tfile.ru]_.mkv
Формат: Matroska
Размер файла: 1,40 Гбайт
Продолжительность: 41 м.
Общий поток: 4810 Кбит/сек
Дата кодирования: UTC 2011-01-22 18:18:10
Программа кодирования: mkvmerge v4.3.0 ('Escape from the Island') сборка от Sep5 2010 10:30:51
Библиотека кодирования: libebml v1.0.0 + libmatroska v1.0.0

Видео
Идентификатор: 1
Формат: AVC
Формат/Информация: Advanced Video Codec
Профиль формата: High@L3.1
Параметр CABAC формата: Да
Параметр ReFrames формата: 4 кадры
Параметры GOP формата: M=2, N=4
Идентификатор кодека: V_MPEG4/ISO/AVC
Продолжительность: 41 м.
Битрейт: 4041 Кбит/сек
Ширина: 1280 пикс.
Высота: 720 пикс.
Соотношение сторон: 16:9
Частота кадров: 23,976 кадр/сек
Цветовое пространство: YUV
Подвыборка цветности: 4:2:0
Битовая глубина: 8 бит
Тип развёртки: Прогрессивная
Бит/(Пиксели*Кадры): 0.183
Размер потока: 1,14 Гбайт (82%)
Библиотека кодирования: x264 core 112 r1834 a51816a
Настройки программы: cabac=1 / ref=1 / deblock=1:0:0 / analyse=0x3:0x113 / me=hex / subme=7 / psy=1 / psy_rd=1.00:0.00 / mixed_ref=0 / me_range=16 / chroma_me=1 / trellis=1 / 8x8dct=1 / cqm=0 / deadzone=21,11 / fast_pskip=1 / chroma_qp_offset=-2 / threads=12 / sliced_threads=0 / nr=0 / decimate=1 / interlaced=0 / constrained_intra=0 / bframes=3 / b_pyramid=2 / b_adapt=1 / b_bias=0 / direct=1 / weightb=1 / open_gop=0 / weightp=2 / keyint=250 / keyint_min=25 / scenecut=40 / intra_refresh=0 / rc_lookahead=40 / rc=2pass / mbtree=1 / bitrate=4041 / ratetol=1.0 / qcomp=0.60 / qpmin=0 / qpmax=51 / qpstep=4 / cplxblur=20.0 / qblur=0.5 / ip_ratio=1.40 / aq=1:1.00

Аудио #1
Идентификатор: 2
Формат: AC-3
Формат/Информация: Audio Coding 3
Расширение режима: CM (complete main)
Идентификатор кодека: A_AC3
Продолжительность: 41 м.
Вид битрейта: Постоянный
Битрейт: 384 Кбит/сек
Канал(ы): 2 канала(ов)
Расположение каналов: Front: L R
Частота: 48,0 КГц
Битовая глубина: 16 бит
Метод сжатия: С потерями
Размер потока: 114 Мбайт (8%)

Аудио #2
Идентификатор: 3
Формат: AC-3
Формат/Информация: Audio Coding 3
Расширение режима: CM (complete main)
Идентификатор кодека: A_AC3
Продолжительность: 41 м.
Вид битрейта: Постоянный
Битрейт: 384 Кбит/сек
Канал(ы): 2 канала(ов)
Расположение каналов: Front: L R
Частота: 48,0 КГц
Битовая глубина: 16 бит
Метод сжатия: С потерями
Размер потока: 114 Мбайт (8%)


[/field]




Поделиться:




реклама партнёра


Вернуться к началу
 Профиль Отправить личное сообщение  
 
   Похожие торренты   Автор   Торрент   Размер 
В этой теме нет новых непрочитанных сообщений. Медики Чикаго / Chicago Med [01x01] (Фред Бернер, Майкл Ваксман) [2015, драма, HDTVRip 720p | Sunshine Studio]

Dracon

31 | 0

680.74 МБ

В этой теме нет новых непрочитанных сообщений. Мажор (сезон 1, серия 1-12 из 12) (Константин Статский) [2014, Криминальная драма, HDTVRip-AVC 720p]

Враг Нароода

101 | 73

19.7 ГБ

В этой теме нет новых непрочитанных сообщений. Сотня / The 100 [3 сезон: 1-2 серия из 16] [фантастика, драма, 2016] WEB-DL 720p [NewStudio]

Dracon

6 | 3

4.21 ГБ

В этой теме нет новых непрочитанных сообщений. Сшиватели / Stitchers / 2 сезон 1-10 серия из 10 [фантастика, драма, криминал, 2016] HDTVRip, Dvo [LevshaFilm]

salma3

29 | 21

4.29 ГБ

В этой теме нет новых непрочитанных сообщений. Ведьмы Ист-Энда / Witches of East End (сезон 1, серия 1-10 из 10) ( Джон Скотт, Аллан Аркуш, Фред Гербер ) [2013, комедия, драма, фэнтези , WEB-DLRip-AVC 1080p] [DD5.1] [NewStudio]

Nikolai.Baranov

8 | 22

17.33 ГБ

В этой теме нет новых непрочитанных сообщений. Стрела / Arrow / 5 сезон 1-03 серия из 23 [фантастика, боевик, драма, 2016] WEB-DL 720p, Mvo [LostFilm]

salma3

95 | 332

4.22 ГБ

В этой теме нет новых непрочитанных сообщений. Секретные материалы / The X-Files [10 сезон: 1-5 серия из 6] [Фантастика, триллер, драма, детектив, 2016] WEB-DL 720p, Dub

Dracon

0 | 0

6.91 ГБ


Начать новую тему Ответить на тему  [ 1 сообщение ] 




Для Мосгорсуда, Роскомнадзора и рекламодателей:: mosgorsud-torrent[собачка]yandex.ru