Торрент файл
скачать торрент магнет ссылка Добавлен: 18 дек 2011, 22:44
Размер: 1.5 ГБ
Сидеров: 0
Личеров: 8
Автор

СообщениеДобавлено: 18 дек 2011, 22:44 

Не в сети
Супермодератор
Аватара пользователя
Дата регистрации:
11 апр 2010, 18:10
Спасибо: 5802 / 7
Сообщения: 56779
Быть человеком, 1 сезон 1 серия / Being Human US

Перевод: Профессиональный (многоголосый, закадровый), Субтитры: отсутствуют
Формат: WEB-DL, MKV, H.264\AVC, AC3
Страна: Канада
Режиссер: Адам Кэйн
Жанр: драма, мистика
Всего серий: 13
Продолжительность: 00:44:31
Год выпуска: 2011

В ролях: Сэм Уитвер, Миган Рат, Сэм Хантингтон, Марк Пеллегрино, Сара Аллен, Джанпаоло Венута, Анджела Галуппо, Кристен Хагер, Винсент Леклерк

Описание: Американская версия британского сериала рассказывает о трёх необычных соседях - вампире, оборотне и призраке. Вампир не слишком успешно пытается обходиться без людей, оборотень мучается из-за своих превращений в полнолуние, а призрак немного странное взбалмошное создание.

Рейтинг на:


Видео: 1280x720 (16/9), MPEG4 AVC, High@L3.1, 23,976 fps, 4041 kbps avg, 0.183 bit/pixel
Аудио: RUS 48,0 kHz, AC-3, 2 ch, Front: L, R, 384 kbps avg
Аудио: ENG 48,0 kHz, AC-3, 2 ch, Front: L, R, 384 kbps avg

Доп. информация:

Релиз-группа:


Над релизом работали:
Перевод: Oleg_Vershinin, Koonz, happiness, smthless, zhazminfleur, xTroy, UltroGame, burton, gbletel
Адаптация: baibako.tv
Озвучка: ChrisTref, Лира Грим, Алексей Кузнецов и Юрий Линкевич


Общее
Уникальный идентификатор : 231735826191902396113217531350911083379 (0xAE56B259F33BC752A00C90AC9334E373)
Полное имя : D:\Lost Film Video\The Cape\the_cape_s01_e02_LostFilm_[tfile.ru].mkv
Формат : Matroska
Размер файла : 1,34 Гбайт
Продолжительность : 43 м.
Общий поток : 4427 Кбит/сек
Дата кодирования : UTC 2011-01-18 23:41:26
Программа кодирования : mkvmerge v4.4.0 ('Die Wiederkehr') сборка от Oct 31 2010 21:52:48
Библиотека кодирования : libebml v1.0.0 + libmatroska v1.0.0

Видео
Идентификатор : 1
Формат : AVC
Формат/Информация : Advanced Video Codec
Профиль формата : High@L3.1
Параметр CABAC формата : Да
Параметр ReFrames формата : 4 кадры
Параметры GOP формата : M=2, N=4
Идентификатор кодека : V_MPEG4/ISO/AVC
Продолжительность : 43 м.
Битрейт : 4041 Кбит/сек
Ширина : 1280 пикс.
Высота : 720 пикс.
Соотношение сторон : 16:9
Частота кадров : 23,976 кадр/сек
Цветовое пространство : YUV
Подвыборка цветности : 4:2:0
Битовая глубина : 8 бит
Тип развёртки : Прогрессивная
Бит/(Пиксели*Кадры) : 0.183
Размер потока : 1,20 Гбайт (89%)
Библиотека кодирования : x264 core 107 r1745 4785e8e
Настройки программы : cabac=1 / ref=3 / deblock=1:0:0 / analyse=0x3:0x113 / me=hex / subme=7 / psy=1 / psy_rd=1.00:0.00 / mixed_ref=1 / me_range=16 / chroma_me=1 / trellis=1 / 8x8dct=1 / cqm=0 / deadzone=21,11 / fast_pskip=1 / chroma_qp_offset=-2 / threads=4 / sliced_threads=0 / nr=0 / decimate=1 / interlaced=0 / constrained_intra=0 / bframes=3 / b_pyramid=2 / b_adapt=1 / b_bias=0 / direct=1 / weightb=1 / open_gop=0 / weightp=2 / keyint=250 / keyint_min=25 / scenecut=40 / intra_refresh=0 / rc_lookahead=40 / rc=2pass / mbtree=1 / bitrate=4041 / ratetol=1.0 / qcomp=0.60 / qpmin=10 / qpmax=51 / qpstep=4 / cplxblur=20.0 / qblur=0.5 / ip_ratio=1.40 / aq=1:1.00

Аудио
Идентификатор : 2
Формат : AC-3
Формат/Информация : Audio Coding 3
Расширение режима : CM (complete main)
Идентификатор кодека : A_AC3
Продолжительность : 43 м.
Вид битрейта : Постоянный
Битрейт : 384 Кбит/сек
Канал(ы) : 2 канала(ов)
Расположение каналов : Front: L R
Частота : 48,0 КГц
Битовая глубина : 16 бит
Метод сжатия : С потерями
Размер потока : 119 Мбайт (9%)
Язык : Russian





Поделиться:




реклама партнёра


Вернуться к началу
 Профиль Отправить личное сообщение  
 
   Похожие торренты   Автор   Торрент   Размер 
В этой теме нет новых непрочитанных сообщений. Быть Человеком / Being Human (USA) [S04] (Паоло Барзмен, Адам Кэйн, Стефан Плещински) [2014, ужасы, фантастика, фэнтези, драма, WEB-DLRip | LostFilm]

Dracon

12 | 2

7.57 ГБ

В этой теме нет новых непрочитанных сообщений. Хэйвен / Haven [05х01 из 13] (Адам Кэйн) [2014, мистика, драма, WEB-DL 1080p | BaibaKo]

Nickolas3435

37 | 4

1.73 ГБ

В этой теме нет новых непрочитанных сообщений. Раскалённая Луна / High Moon (Адам Кэйн) [2014, фантастика, триллер, драма, HDTVRip-AVC] dvo

Nickolas3435

245 | 9

1.61 ГБ

В этой теме нет новых непрочитанных сообщений. Раскалённая Луна / High Moon (Адам Кэйн) [2014, фантастика, триллер, драма, HDTV 720p] dvo

Nickolas3435

567 | 19

1.79 ГБ

В этой теме нет новых непрочитанных сообщений. Реанимация / Code Black [S01] (Ли Роуз, Дэвид Семел, Адам Кэйн) [2015, Драма, WEB-DL 720p | BaibaKo]

Dracon

41 | 54

14.33 ГБ

В этой теме нет новых непрочитанных сообщений. Реанимация / Code Black [S01] (Адам Кэйн, Крис Мисиано) [2015, Триллер, драма, детектив, WEB-DLRip | Amedia]

Nickolas3435

0 | 0

7.69 ГБ

В этой теме нет новых непрочитанных сообщений. Реанимация / Code Black [01х01-15 из 18] (Адам Кэйн, Крис Мисиано) [2015, Триллер, драма, детектив, WEB-DL 720p | Amedia]

Nickolas3435

3 | 2

20.27 ГБ


Начать новую тему Ответить на тему  [ 1 сообщение ] 




Для Мосгорсуда, Роскомнадзора и рекламодателей:: mosgorsud-torrent[собачка]yandex.ru