Торрент файл
скачать торрент магнет ссылка Добавлен: 18 дек 2011, 22:43
Размер: 1.57 ГБ
Сидеров: 0
Личеров: 4
Автор

СообщениеДобавлено: 18 дек 2011, 22:43 

Не в сети
Супермодератор
Аватара пользователя
Дата регистрации:
11 апр 2010, 18:10
Спасибо: 5801 / 7
Сообщения: 56779
Живая Мишень, 2 Сезон 5 серия / Human Target

«He's a guardian. Not an angel.»

Перевод: Профессиональный (многоголосый, закадровый), cубтитры: отсутствуют
Формат: WEB-DL, MKV, H.264\AVC, AC3
Страна: США
Режиссер: Стив Бойум, Пол А. Эдвардс, Кевин Хукс,
Жанр: Боевик, драма, приключения, криминал
Всего серий: 13
Продолжительность: 00:44:12
Год выпуска: 2010

В ролях: Марк Вэлли, Чи МакБрайд, Джеки Эрл Хейли, Индира Варма, Джанет Монтгомери, Эммануэль Вожье, Отем Ризер, Ленни Джеймс, Тони Али, Фрейзер Айтчесон

Описание: Только храбрый и самоотверженный человек может стать живой мишенью для того, чтобы спасти жизнь другому. Human Target — основанная на одноименном комиксе экшн-драма, главный герой которой — Кристофер Чэнс, единственный в своем роде частный охранник. Называть его можно как угодно — защитником, охранником или телохранителем, но для Чэнса главное одно — спасти жизнь своего клиента.

Когда угрозу убийства невозможно ликвидировать стандартными методами, Чэнс полностью вливается в жизнь клиента, и становится мишенью для убийцы. Если менеджеру корпорации угрожает уволенный подчиненный, Чэнс становится аудитором корпорации. Если президенту банка сообщили о намечающейся краже, Чэнс станет банковским клерком.

В каждом деле Кристоферу помогают его бизнес-партнер Уинстон и фрилансер Герреро. В каждом деле Кристофер становится на линию огня, и пытается спасти клиента, раскрывая тайны заговора. Во время каждого дела мы немного узнаем и о самом Чэнсе. Знает ли кто-нибудь, кто такой этот Кристофер Чэнс и какие секреты похоронены у него в прошлом? Что заставляет его каждый раз становиться живой мишенью?


Рейтинг на:



Видео: 1280x720 (16:9), MPEG4/ISO/AVC, 23,976 fps, 4041 Kbps, 0.183 bit/pixel
Аудио:
Rus : 48,0 kHz, AC-3,2 ch, Front: L, R, 384 kbps avg
Eng :48,0 kHz, AC-3,2 ch, Front: L, R, 384 kbps avg

Доп. информация:
Релиз группы:


Перевод и озвучание: Студия "Кравец"

Официальный сайт: [Живая мишень]

Трейлеры: [Живая мишень]










Общее
Уникальный идентификатор: 229873409446637375622685890262418361847 (0xACF0021DCC0A715EA99669F924B08DF7)
Полное имя: D:\Lost Film Video\Живая мишень\human_target_s02e_05_lostfilm_[tfile.ru].mkv
Формат: Matroska
Размер файла: 1,57 Гбайт
Продолжительность: 44 м.
Общий поток: 5068 Кбит/сек
Дата кодирования: UTC 2010-12-18 16:18:02
Программа кодирования: mkvmerge v4.4.0 ('Die Wiederkehr') сборка от Oct 31 2010 21:52:48
Библиотека кодирования: libebml v1.0.0 + libmatroska v1.0.0

Видео
Идентификатор: 1
Формат: AVC
Формат/Информация: Advanced Video Codec
Профиль формата: High@L3.1
Параметр CABAC формата: Да
Параметр ReFrames формата: 4 кадры
Параметры GOP формата: M=3, N=5
Идентификатор кодека: V_MPEG4/ISO/AVC
Продолжительность: 44 м.
Битрейт: 4041 Кбит/сек
Ширина: 1280 пикс.
Высота: 720 пикс.
Соотношение сторон: 16:9
Частота кадров: 23,976 кадр/сек
Цветовое пространство: YUV
Подвыборка цветности: 4:2:0
Битовая глубина: 8 бит
Тип развёртки: Прогрессивная
Бит/(Пиксели*Кадры): 0.183
Размер потока: 1,22 Гбайт (78%)
Библиотека кодирования: x264 core 104 r1703 cd21d05
Настройки программы: cabac=1 / ref=3 / deblock=1:0:0 / analyse=0x3:0x113 / me=hex / subme=7 / psy=1 / psy_rd=1.00:0.00 / mixed_ref=1 / me_range=16 / chroma_me=1 / trellis=1 / 8x8dct=1 / cqm=0 / deadzone=21,11 / fast_pskip=1 / chroma_qp_offset=-2 / threads=12 / sliced_threads=0 / nr=0 / decimate=1 / interlaced=0 / constrained_intra=0 / bframes=3 / b_pyramid=2 / b_adapt=1 / b_bias=0 / direct=1 / weightb=1 / open_gop=0 / weightp=2 / keyint=250 / keyint_min=25 / scenecut=40 / intra_refresh=0 / rc_lookahead=40 / rc=2pass / mbtree=1 / bitrate=4041 / ratetol=1.0 / qcomp=0.60 / qpmin=10 / qpmax=51 / qpstep=4 / cplxblur=20.0 / qblur=0.5 / ip_ratio=1.40 / aq=1:1.00

Аудио #1
Идентификатор: 2
Формат: AC-3
Формат/Информация: Audio Coding 3
Расширение режима: CM (complete main)
Идентификатор кодека: A_AC3
Продолжительность: 44 м.
Вид битрейта: Постоянный
Битрейт: 640 Кбит/сек
Канал(ы): 2 канала(ов)
Расположение каналов: Front: L R
Частота: 48,0 КГц
Битовая глубина: 16 бит
Метод сжатия: С потерями
Размер потока: 202 Мбайт (13%)

Аудио #2
Идентификатор: 3
Формат: AC-3
Формат/Информация: Audio Coding 3
Расширение режима: CM (complete main)
Идентификатор кодека: A_AC3
Продолжительность: 44 м.
Вид битрейта: Постоянный
Битрейт: 384 Кбит/сек
Канал(ы): 2 канала(ов)
Расположение каналов: Front: L R
Частота: 48,0 КГц
Битовая глубина: 16 бит
Метод сжатия: С потерями
Размер потока: 121 Мбайт (8%)







Поделиться:




реклама партнёра


Вернуться к началу
 Профиль Отправить личное сообщение  
 
   Похожие торренты   Автор   Торрент   Размер 
В этой теме нет новых непрочитанных сообщений. Живая мишень / Human Target / 1-2 сезоны 1-25 серия из 25 [боевик, триллер, криминал, приключения, 2010] WEB-DLRip, Mvo [LostFilm]

salma3

7 | 8

10.42 ГБ

В этой теме нет новых непрочитанных сообщений. Кровавый кулак 5: Живая мишень / Bloodfist V: Human Target [ Боевик, боевые искуства, 1994] DVDRip, Mvo [РЕН-ТВ]

salma3

69 | 20

1.36 ГБ

В этой теме нет новых непрочитанных сообщений. Революция / Revolution [s1-s2x1-42 из 42] (Чарльз Бисон, Стив Бойум, Джон Кассар) [2012-2014, фантастика, боевик, приключения, WEB-DLRip | Lostfilm]

Nickolas3435

9 | 5

35.19 ГБ

В этой теме нет новых непрочитанных сообщений. Революция / Revolution (Стив Бойум, Джон Фавро) (Сезон 1-2, Серии 1-42 из 42) [2012-2014, Фантастика , Драма , WEBDLRip-AVC 720р] [DD5.1] [MVO] [Rumedia+LostFilm]

Nikolai.Baranov

0 | 2

43.76 ГБ

В этой теме нет новых непрочитанных сообщений. Гавайи 5.0 / Hawaii Five-0 [06х01-09 из 25] (Брайан Спайсер, Ларри Тенг, Стив Бойум) [2015, боевик, драма, криминал, WEB-DLRip | LostFilm]

Dracon

87 | 305

5.88 ГБ

В этой теме нет новых непрочитанных сообщений. Мишень / The Target / Pyojeok / Point Blank (Юн Хон Сын) [2014, триллер, драма, боевик, HDTV 720p] dvo

Nickolas3435

581 | 15

2.33 ГБ

В этой теме нет новых непрочитанных сообщений. Трудная мишень 2 / Hard Target 2 [боевик, триллер, 2016] BDRip 720p, Dub [Лицензия]

salma3

576 | 719

6.84 ГБ


Начать новую тему Ответить на тему  [ 1 сообщение ] 




Для Мосгорсуда, Роскомнадзора и рекламодателей:: mosgorsud-torrent[собачка]yandex.ru