Торрент файл
скачать торрент магнет ссылка Добавлен: 18 дек 2011, 22:39
Размер: 13.92 ГБ
Сидеров: 16
Личеров: 21
Автор

СообщениеДобавлено: 18 дек 2011, 22:39 

Не в сети
Супермодератор
Аватара пользователя
Дата регистрации:
11 апр 2010, 18:10
Спасибо: 5962 / 7
Сообщения: 56765
Тихий Океан, 1 сезон 1-10 серия из 10 / Тихоокеанский фронт / The Pacific


Перевод: Профессиональный (Двухголосый, закадровый), "Кубик в Кубе"
Перевод: Любительский (Двухголосый, закадровый), "NewStudo"
Перевод: Профессиональный (многоголосый, закадровый), "LostFilm"
Субтитры:ЕСТЬ (Rus) (Eng)

Слоган:«Hell was an ocean away.»
Формат: BDRip, AVI, XviD, AC3
Страна: США
Режиссер: Джереми Подесва, Карл Франклин, Дэвид Наттер
Жанр: Bоенный, драма
Всего серий: 10
Продолжительность: 10 х 00:53
Год выпуска: 2010

В ролях:
Боб Рамнок, Тоби Мур, Джошуа Битон, Джеймс Бэдж Дэйл, Джозеф Маццелло, Джон Седа, Джон Бернтал, Том Бадж, Джош Хелман, Эштон Холмс, Анна Торв

Описание:
Сериал «Тихий океан» — новое творение создателей знаменитого сериала «Братья по оружию» (Band of Brothers) Тома Хэнкса и Стивена Спилберга. Сериал представляет собой историю трех солдат армии США, которые принимают участие в боевых действиях на Тихом океане. Основа сценария The Pacific — это несколько документальных источников, в частности книга Евгения Следжа «With the Old Breed», мемуары Роберта Лекки «Каска вместо подушки» («Helmet for My Pillow»), а также реальная история морского пехотинца Джона Бэсилона — единственного морского пехотинца, заслужившего своим героизмом во время войны и Почётную медаль Конгресса (Medal of Honor), и военно-морской крест (Navy Cross), и «Пурпурное сердце» (Purple Heart) и погибшего в битве при Иводзиме.

Для большинства американцев Великая Отечественная война считалась "Неизвестной войной". Во многом потому, что в то же время, на Тихом океане США вели боевые действия против японского милитаризма.

Сериал "На Тихом океане" посвящён противостоянию США и Японии на Тихоокеанском театре военных действий во время Второй мировой войны.


Рейтинг на:



Видео: 720x400 (1.80:1), 23.976 fps, XviD MPEG-4 ~1989 kbps avg, 0.29 bit/pixel
Аудио #1 Rus: 48 kHz, AC3 Dolby Digital, 6 ch, L C R, L R, LFE~448 Kbps - "Кубик в Кубе"
Аудио #2 Rus: 48 kHz, AC3 Dolby Digital, 6 ch, L C R, L R, LFE~448 Kbps - "NewStudo"
Аудио #3 Rus: 48 kHz, AC3 Dolby Digital, 6 ch, L C R, L R, LFE~448 Kbps - "LostFilm"
Аудио #4 Eng: 48 kHz, AC3 Dolby Digital, 6 ch, L C R, L R, LFE~448 Kbps - "Original"


Звуковые дорожки указаны по порядку, как расположены в релизе, Выбирайте Правильно !!!


    Guadalcanal/Leckie
    Basilone
    Melbourne
    Gloucester/Pavuvu/Banika
    Peleliu Landing
    Peleliu Airfield
    Peleliu Hills
    Iwo Jima
    Okinawa
  • Home



Общее
Полное имя: E:\ШАРА\Фильмы\Сериалы\The Pacific Season 1\The.Pacific.s01e01.rus.eng.HDRip.avi
Формат: AVI
Формат/Информация: Audio Video Interleave
Размер файла: 1,38 Гбайт
Продолжительность: 52 м.
Общий поток: 3807 Кбит/сек
Название фильма: Тихий Океан / The Pacific [E01] (2010) BDRip
Режиссёр: Serval
Программа кодирования: VirtualDubMod 1.5.10.2 (build 2540/release)
Библиотека кодирования: VirtualDubMod build 2540/release
Правообладатель:

Видео
Идентификатор: 0
Формат: MPEG-4 Visual
Профиль формата: Advanced Simple@L5
Параметр BVOP формата: 1
Параметр QPel формата: Нет
Параметр GMC формата: Без точки перехода
Параметр матрицы формата: Выборочная
Идентификатор кодека: XVID
Идентификатор кодека/Подсказка: XviD
Продолжительность: 52 м.
Битрейт: 1992 Кбит/сек
Ширина: 720 пикс.
Высота: 400 пикс.
Соотношение сторон: 16:9
Частота кадров: 23,976 кадр/сек
Цветовое пространство: YUV
Подвыборка цветности: 4:2:0
Битовая глубина: 8 бит
Тип развёртки: Прогрессивная
Метод сжатия: С потерями
Бит/(Пиксели*Кадры): 0.289
Размер потока: 742 Мбайт (52%)
Библиотека кодирования: XviD 1.2.1 (UTC 2008-12-04)

Аудио #1
Идентификатор: 1
Формат: AC-3
Формат/Информация: Audio Coding 3
Расширение режима: CM (complete main)
Идентификатор кодека: 2000
Продолжительность: 52 м.
Вид битрейта: Постоянный
Битрейт: 448 Кбит/сек
Канал(ы): 6 канала(ов)
Расположение каналов: Front: L C R, Side: L R, LFE
Частота: 48,0 КГц
Битовая глубина: 16 бит
Метод сжатия: С потерями
Размер потока: 167 Мбайт (12%)
Выравнивание: Разделение по промежуткам
Продолжительность промежутка: 42мс. (1,00 видеокадр)
Время предзагрузки промежутка: 500 ms

Аудио #2
Идентификатор: 2
Формат: AC-3
Формат/Информация: Audio Coding 3
Расширение режима: CM (complete main)
Идентификатор кодека: 2000
Продолжительность: 52 м.
Вид битрейта: Постоянный
Битрейт: 448 Кбит/сек
Канал(ы): 6 канала(ов)
Расположение каналов: Front: L C R, Side: L R, LFE
Частота: 48,0 КГц
Битовая глубина: 16 бит
Метод сжатия: С потерями
Размер потока: 167 Мбайт (12%)
Выравнивание: Разделение по промежуткам
Продолжительность промежутка: 42мс. (1,00 видеокадр)
Время предзагрузки промежутка: 500 ms

Аудио #3
Идентификатор: 3
Формат: AC-3
Формат/Информация: Audio Coding 3
Расширение режима: CM (complete main)
Идентификатор кодека: 2000
Продолжительность: 52 м.
Вид битрейта: Постоянный
Битрейт: 448 Кбит/сек
Канал(ы): 6 канала(ов)
Расположение каналов: Front: L C R, Side: L R, LFE
Частота: 48,0 КГц
Битовая глубина: 16 бит
Метод сжатия: С потерями
Размер потока: 167 Мбайт (12%)
Выравнивание: Разделение по промежуткам
Продолжительность промежутка: 42мс. (1,00 видеокадр)
Время предзагрузки промежутка: 500 ms

Аудио #4
Идентификатор: 4
Формат: AC-3
Формат/Информация: Audio Coding 3
Расширение режима: CM (complete main)
Идентификатор кодека: 2000
Продолжительность: 52 м.
Вид битрейта: Постоянный
Битрейт: 448 Кбит/сек
Канал(ы): 6 канала(ов)
Расположение каналов: Front: L C R, Side: L R, LFE
Частота: 48,0 КГц
Битовая глубина: 16 бит
Метод сжатия: С потерями
Размер потока: 167 Мбайт (12%)
Выравнивание: Разделение по промежуткам
Продолжительность промежутка: 42мс. (1,00 видеокадр)
Время предзагрузки промежутка: 500 ms

Вы хотите скачать одну серию из сезона, а он раздается сразу целиком одним торрентом?

Всё элементарно

1. Сначала нажимаем на кнопку "Скачать"


2. Далее "Открыть"


3. Снимаем галочки, и ставим их на те серии, которые хотите скачать

Ну вот и все,, жмем хОКкей,, и наслаждаемся.... Всем Привет.....





















Поделиться:




реклама партнёра


Вернуться к началу
 Профиль Отправить личное сообщение  
 
   Похожие торренты   Автор   Торрент   Размер 
В этой теме нет новых непрочитанных сообщений. Тихий час / The Quiet Hour [фантастика, триллер, драма, 2014] BDRip, Mvo

salma3

211 | 65

1.45 ГБ

В этой теме нет новых непрочитанных сообщений. Тихий час / The Quiet Hour [фантастика, триллер, драма, 2014] BDRip 1080p, Mvo

salma3

250 | 69

6.94 ГБ

В этой теме нет новых непрочитанных сообщений. Изгоняющий дьявола / The Exorcist [2017] (Сезон 2 , Серия 1- 6 из 10) (Джереми Слейтер) [Ужасы, триллер, экранизация , WEB-DLRip][1080p][SDI Media+OMSKBIRD+BaibaKo+NewStudiо+Jaskier+ AMS+ Kubik V Kube+Eng]+[Subs Rus , ENG]

Враг Нароода

0 | 0

23.73 ГБ

В этой теме нет новых непрочитанных сообщений. Катастрофа / Blue Ruin (Джереми Солнье) [2013, триллер, драма, криминал, BDRip 720p] mvo+avo

Dracon

174 | 22

3.74 ГБ

В этой теме нет новых непрочитанных сообщений. Тихий час / The Quiet Hour (2014) BDRip от Koenig | P

marya111

171 | 14

1.45 ГБ

В этой теме нет новых непрочитанных сообщений. Шафер напрокат / The Wedding Ringer (Джереми Гарелик) [мелодрама, комедия, 2015] BDRip-AVC, Dub+Sub [Лицензия]

Dracon

345 | 12

1.46 ГБ

В этой теме нет новых непрочитанных сообщений. Тихий Дон [13 из 14] (Сергей Урсуляк) [драма, экранизация, 2015] SATRip

Dracon

3 | 0

599.15 МБ


Начать новую тему Ответить на тему  [ 1 сообщение ] 




Для Мосгорсуда, Роскомнадзора и рекламодателей:: mosgorsud-torrent[собачка]yandex.ru