Торрент файл
скачать торрент магнет ссылка Добавлен: 18 дек 2011, 22:27
Размер: 13.94 ГБ
Сидеров: 36
Личеров: 13
Автор

СообщениеДобавлено: 18 дек 2011, 22:27 

Не в сети
Супермодератор
Аватара пользователя
Дата регистрации:
11 апр 2010, 18:10
Спасибо: 5802 / 7
Сообщения: 56779
Тюдоры, 4 сезон 1-10 серии / The Tudors


Перевод: Любительский (двухголосый), cубтитры: есть
Формат: HDTV, MKV, H.264\AVC, MP3
Страна: США, Канада, Ирландия, Великобритания
Режиссер: Киаран Доннелли, Джереми Подесва, Дирбла Уолш, Стив Шилл, Брайан Кирк, Элисон Маклин, Чарльз МакДугалл, Джон Эмиел, Колм МакКарти
Жанр: Драма, Исторический, Мелодрама, Военный
Всего серий: 10
Продолжительность: 10 х 00:55
Год выпуска: 2010
В ролях: Джонатан Рис-Майерс, Генри Кавилл, Джеймс Фрейн, Натали Дормер, Ник Даннинг, Энтони Брофи, Гай Карлтон, Мария Дойл Кеннеди, Падрейк Делейни, Джереми Нортэм, Сара Болджер, Джэми Кинг, Ребека Вейнрайт, Макс Браун, Джон Кэвэна, Род Халлетт, Джоэнн Кинг, Сэм Нил, Каллум Блу, Генри Черни, Ганс Мэтисон, Джейн Бреннан, Дэвид Алпей, Саймон Уорд, Джо Ван Мойланд, Боско Хоган, Торранс Кумбс, Алан Ван Спрэнг, Эмма Хэмилтон, Кристи Белла Джойнер, Питер О`Тул, Кристен Холден-Рид, Катрин Бирн, Энди МакНейр, Деклан Конлон
Описание: Публичная и тайная жизнь представителей нескольких поколений династии Тюдоров — противоречивого периода в жизни Англии. Процветание и разорение, мудрость королей и деспотия тиранов, скрытые аспекты жизни величайших деятелей того времени — Генриха VII, Генриха VIII, Марии I, Елизаветы I и многих других.
Рейтинг на IMDB: 8,2/10
Видео: 1280х720 (16:9), 23.976 fps, AVC (High@L3.1), ~3375 kbps avg, 0.153 bit/pixel
Аудио:
Rus #1: 48 kHz, MPEG Layer 3, 2 ch, ~128.00 kbps avg
Eng #2: 48 kHz, AC3 Dolby Digital, 6 сh, 448 kbps avg

Доп. информация: Релиз: NewStudio

Общее
Уникальный идентификатор: 189349537474706055014972423831109890432 (0x8E7364F8914FD2D4803045964E45F180)
Полное имя: C:\Tjudory_s4_e1-10_[tfile.ru]\Tjudory_s4_e10_[tfile.ru].mkv
Формат: Matroska
Размер файла: 1,51 Гбайт
Продолжительность: 55 м.
Общий поток: 3882 Кбит/сек
Дата кодирования: UTC 2010-07-25 10:41:18
Программа кодирования: mkvmerge v4.0.0 ('The Stars were mine') сборка от Jun 11 2010 23:24:27
Библиотека кодирования: libebml v1.0.0 + libmatroska v1.0.0

Видео
Идентификатор: 1
Формат: AVC
Формат/Информация: Advanced Video Codec
Профиль формата: High@L3.1
Параметр CABAC формата: Да
Параметр ReFrames формата: 4 кадры
Идентификатор кодека: V_MPEG4/ISO/AVC
Продолжительность: 55 м.
Битрейт: 3368 Кбит/сек
Ширина: 1280 пикс.
Высота: 720 пикс.
Соотношение сторон: 16:9
Частота кадров: 23,976 кадр/сек
Цветовое пространство: YUV
Подвыборка цветности: 4:2:0
Битовая глубина: 8 бит
Тип развёртки: Прогрессивная
Бит/(Пиксели*Кадры): 0.152
Размер потока: 1,28 Гбайт (85%)
Заголовок: The Tudors S04E10 - Death of a Monarchy @ CES - 4ES
Библиотека кодирования: x264 core 98 r1643 59a9e03
Настройки программы: cabac=1 / ref=3 / deblock=1:-2:-1 / analyse=0x3:0x113 / me=umh / subme=6 / psy=1 / psy_rd=1.00:0.00 / mixed_ref=0 / me_range=16 / chroma_me=1 / trellis=1 / 8x8dct=1 / cqm=0 / deadzone=21,11 / fast_pskip=1 / chroma_qp_offset=-2 / threads=20 / sliced_threads=0 / nr=0 / decimate=1 / interlaced=0 / constrained_intra=0 / bframes=3 / b_pyramid=2 / b_adapt=1 / b_bias=0 / direct=1 / weightb=1 / weightp=2 / keyint=250 / keyint_min=25 / scenecut=40 / intra_refresh=0 / rc_lookahead=40 / rc=2pass / mbtree=1 / bitrate=3368 / ratetol=1.0 / qcomp=0.60 / qpmin=10 / qpmax=51 / qpstep=4 / cplxblur=20.0 / qblur=0.5 / ip_ratio=1.40 / aq=1:1.00
Язык: English

Аудио #1
Идентификатор: 2
Формат: MPEG Audio
Версия формата: Version 1
Профиль формата: Layer 3
Режим: Joint stereo
Расширение режима: MS Stereo
Идентификатор кодека: A_MPEG/L3
Идентификатор кодека/Подсказка: MP3
Продолжительность: 55 м.
Вид битрейта: Постоянный
Битрейт: 128 Кбит/сек
Канал(ы): 2 канала(ов)
Частота: 48,0 КГц
Метод сжатия: С потерями
Размер потока: 50,9 Мбайт (3%)
Заголовок: NewStudio @ CES - 4ES
Язык: Russian

Аудио #2
Идентификатор: 3
Формат: AC-3
Формат/Информация: Audio Coding 3
Расширение режима: CM (complete main)
Идентификатор кодека: A_AC3
Продолжительность: 55 м.
Вид битрейта: Постоянный
Битрейт: 384 Кбит/сек
Канал(ы): 6 канала(ов)
Расположение каналов: Front: L C R, Side: L R, LFE
Частота: 48,0 КГц
Битовая глубина: 16 бит
Метод сжатия: С потерями
Размер потока: 153 Мбайт (10%)
Заголовок: DD 5.1 @ CES - 4ES
Язык: English

Текст #1
Идентификатор: 4
Формат: UTF-8
Идентификатор кодека: S_TEXT/UTF8
Идентификатор кодека/Информация: UTF-8 Plain Text
Заголовок: Forced @ KarlZon (Notabenoid.com) @ CES - 4ES
Язык: Russian

Текст #2
Идентификатор: 5
Формат: UTF-8
Идентификатор кодека: S_TEXT/UTF8
Идентификатор кодека/Информация: UTF-8 Plain Text
Заголовок: KarlZon (Notabenoid.com) @ CES - 4ES
Язык: Russian

Общее
Уникальный идентификатор: 207944535921884414907372902392250613328 (0x9C70A92D7D576AEFA936AC4A7409BE50)
Полное имя: C:\Users\Ivan\Desktop\Tjudory_s4_e1-10_[tfile.ru]\Tjudory_s4_e1_[tfile.ru].mkv
Формат: Matroska
Размер файла: 1,51 Гбайт
Продолжительность: 55 м.
Общий поток: 3891 Кбит/сек
Дата кодирования: UTC 2010-07-20 05:18:42
Программа кодирования: mkvmerge v4.0.0 ('The Stars were mine') сборка от Jun 11 2010 23:24:27
Библиотека кодирования: libebml v1.0.0 + libmatroska v1.0.0

Видео
Идентификатор: 1
Формат: AVC
Формат/Информация: Advanced Video Codec
Профиль формата: High@L3.1
Параметр CABAC формата: Да
Параметр ReFrames формата: 4 кадры
Идентификатор кодека: V_MPEG4/ISO/AVC
Продолжительность: 55 м.
Битрейт: 3375 Кбит/сек
Ширина: 1280 пикс.
Высота: 720 пикс.
Соотношение сторон: 16:9
Частота кадров: 23,976 кадр/сек
Цветовое пространство: YUV
Подвыборка цветности: 4:2:0
Битовая глубина: 8 бит
Тип развёртки: Прогрессивная
Бит/(Пиксели*Кадры): 0.153
Размер потока: 1,28 Гбайт (85%)
Заголовок: The Tudors S04E01 - Moment of Nostalgia @ CES - 4ES
Библиотека кодирования: x264 core 93 r1538 bd72d46
Настройки программы: cabac=1 / ref=3 / deblock=1:-2:-1 / analyse=0x3:0x113 / me=umh / subme=6 / psy=1 / psy_rd=1.00:0.00 / mixed_ref=0 / me_range=16 / chroma_me=1 / trellis=1 / 8x8dct=1 / cqm=0 / deadzone=21,11 / fast_pskip=1 / chroma_qp_offset=-2 / threads=20 / sliced_threads=0 / nr=0 / decimate=1 / interlaced=0 / constrained_intra=0 / bframes=3 / b_pyramid=2 / b_adapt=1 / b_bias=0 / direct=1 / wpredb=1 / wpredp=2 / keyint=250 / keyint_min=25 / scenecut=40 / intra_refresh=0 / rc_lookahead=40 / rc=2pass / mbtree=1 / bitrate=3375 / ratetol=1.0 / qcomp=0.60 / qpmin=10 / qpmax=51 / qpstep=4 / cplxblur=20.0 / qblur=0.5 / ip_ratio=1.40 / aq=1:1.00
Язык: English

Аудио #1
Идентификатор: 2
Формат: MPEG Audio
Версия формата: Version 1
Профиль формата: Layer 3
Режим: Joint stereo
Расширение режима: MS Stereo
Идентификатор кодека: A_MPEG/L3
Идентификатор кодека/Подсказка: MP3
Продолжительность: 55 м.
Вид битрейта: Постоянный
Битрейт: 128 Кбит/сек
Канал(ы): 2 канала(ов)
Частота: 48,0 КГц
Метод сжатия: С потерями
Размер потока: 50,8 Мбайт (3%)
Заголовок: NewStudio @ CES - 4ES
Язык: Russian

Аудио #2
Идентификатор: 3
Формат: AC-3
Формат/Информация: Audio Coding 3
Расширение режима: CM (complete main)
Идентификатор кодека: A_AC3
Продолжительность: 55 м.
Вид битрейта: Постоянный
Битрейт: 384 Кбит/сек
Канал(ы): 6 канала(ов)
Расположение каналов: Front: L C R, Side: L R, LFE
Частота: 48,0 КГц
Битовая глубина: 16 бит
Метод сжатия: С потерями
Размер потока: 152 Мбайт (10%)
Заголовок: DD 5.1 @ CES - 4ES
Язык: English

Текст
Идентификатор: 4
Формат: UTF-8
Идентификатор кодека: S_TEXT/UTF8
Идентификатор кодека/Информация: UTF-8 Plain Text
Заголовок: KarlZon (Notabenoid.com)
Язык: Russian

Общее
Уникальный идентификатор: 176909693834179216249965768360701344734 (0x8517915386C4F27F8B14261B552E3BDE)
Полное имя: C:\Tjudory_s4_e1-10_[tfile.ru]\Tjudory_s4_e2_[tfile.ru].mkv
Формат: Matroska
Размер файла: 1,50 Гбайт
Продолжительность: 53 м.
Общий поток: 4028 Кбит/сек
Дата кодирования: UTC 2010-07-20 05:24:38
Программа кодирования: mkvmerge v4.0.0 ('The Stars were mine') сборка от Jun 11 2010 23:24:27
Библиотека кодирования: libebml v1.0.0 + libmatroska v1.0.0

Видео
Идентификатор: 1
Формат: AVC
Формат/Информация: Advanced Video Codec
Профиль формата: High@L3.1
Параметр CABAC формата: Да
Параметр ReFrames формата: 4 кадры
Идентификатор кодека: V_MPEG4/ISO/AVC
Продолжительность: 53 м.
Битрейт: 3515 Кбит/сек
Ширина: 1280 пикс.
Высота: 720 пикс.
Соотношение сторон: 16:9
Частота кадров: 23,976 кадр/сек
Цветовое пространство: YUV
Подвыборка цветности: 4:2:0
Битовая глубина: 8 бит
Тип развёртки: Прогрессивная
Бит/(Пиксели*Кадры): 0.159
Размер потока: 1,28 Гбайт (85%)
Заголовок: The Tudors S04E02 - Sister @ CES - 4ES
Библиотека кодирования: x264 core 93 r1538 bd72d46
Настройки программы: cabac=1 / ref=3 / deblock=1:-2:-1 / analyse=0x3:0x113 / me=umh / subme=6 / psy=1 / psy_rd=1.00:0.00 / mixed_ref=0 / me_range=16 / chroma_me=1 / trellis=1 / 8x8dct=1 / cqm=0 / deadzone=21,11 / fast_pskip=1 / chroma_qp_offset=-2 / threads=20 / sliced_threads=0 / nr=0 / decimate=1 / interlaced=0 / constrained_intra=0 / bframes=3 / b_pyramid=2 / b_adapt=1 / b_bias=0 / direct=1 / wpredb=1 / wpredp=2 / keyint=250 / keyint_min=25 / scenecut=40 / intra_refresh=0 / rc_lookahead=40 / rc=2pass / mbtree=1 / bitrate=3515 / ratetol=1.0 / qcomp=0.60 / qpmin=10 / qpmax=51 / qpstep=4 / cplxblur=20.0 / qblur=0.5 / ip_ratio=1.40 / aq=1:1.00
Язык: English

Аудио #1
Идентификатор: 2
Формат: MPEG Audio
Версия формата: Version 1
Профиль формата: Layer 3
Режим: Joint stereo
Расширение режима: MS Stereo
Идентификатор кодека: A_MPEG/L3
Идентификатор кодека/Подсказка: MP3
Продолжительность: 53 м.
Вид битрейта: Постоянный
Битрейт: 128 Кбит/сек
Канал(ы): 2 канала(ов)
Частота: 48,0 КГц
Метод сжатия: С потерями
Размер потока: 49,0 Мбайт (3%)
Заголовок: NewStudio @ CES - 4ES
Язык: Russian

Аудио #2
Идентификатор: 3
Формат: AC-3
Формат/Информация: Audio Coding 3
Расширение режима: CM (complete main)
Идентификатор кодека: A_AC3
Продолжительность: 53 м.
Вид битрейта: Постоянный
Битрейт: 384 Кбит/сек
Канал(ы): 6 канала(ов)
Расположение каналов: Front: L C R, Side: L R, LFE
Частота: 48,0 КГц
Битовая глубина: 16 бит
Метод сжатия: С потерями
Размер потока: 147 Мбайт (10%)
Заголовок: DD 5.1 @ CES - 4ES
Язык: English

Текст
Идентификатор: 4
Формат: UTF-8
Идентификатор кодека: S_TEXT/UTF8
Идентификатор кодека/Информация: UTF-8 Plain Text
Заголовок: KarlZon (Notabenoid.com) @ CES - 4ES
Язык: Russian

Общее
Уникальный идентификатор: 178421015060116225445391515342384342022 (0x863AA337365FEA4E9B4A6D92E2632406)
Полное имя: C:\Tjudory_s4_e1-10_[tfile.ru]\Tjudory_s4_e3_[tfile.ru].mkv
Формат: Matroska
Размер файла: 1,50 Гбайт
Продолжительность: 51 м.
Общий поток: 4149 Кбит/сек
Дата кодирования: UTC 2010-07-20 05:30:27
Программа кодирования: mkvmerge v4.0.0 ('The Stars were mine') сборка от Jun 11 2010 23:24:27
Библиотека кодирования: libebml v1.0.0 + libmatroska v1.0.0

Видео
Идентификатор: 1
Формат: AVC
Формат/Информация: Advanced Video Codec
Профиль формата: High@L3.1
Параметр CABAC формата: Да
Параметр ReFrames формата: 3 кадры
Идентификатор кодека: V_MPEG4/ISO/AVC
Продолжительность: 51 м.
Битрейт: 3644 Кбит/сек
Ширина: 1280 пикс.
Высота: 720 пикс.
Соотношение сторон: 16:9
Частота кадров: 23,976 кадр/сек
Цветовое пространство: YUV
Подвыборка цветности: 4:2:0
Битовая глубина: 8 бит
Тип развёртки: Прогрессивная
Бит/(Пиксели*Кадры): 0.165
Размер потока: 1,29 Гбайт (86%)
Заголовок: The Tudors S04E03 - Something for You @ CES - 4ES
Библиотека кодирования: x264 core 88 r1471 1144615
Настройки программы: cabac=1 / ref=3 / deblock=1:0:0 / analyse=0x3:0x113 / me=hex / subme=6 / psy=1 / psy_rd=1.00:0.00 / mixed_ref=1 / me_range=16 / chroma_me=1 / trellis=1 / 8x8dct=1 / cqm=0 / deadzone=21,11 / fast_pskip=1 / chroma_qp_offset=-2 / threads=20 / sliced_threads=0 / nr=0 / decimate=1 / mbaff=0 / constrained_intra=0 / bframes=3 / b_pyramid=1 / b_adapt=2 / b_bias=0 / direct=1 / wpredb=1 / wpredp=0 / keyint=240 / keyint_min=24 / scenecut=40 / intra_refresh=0 / rc_lookahead=40 / rc=2pass / mbtree=1 / bitrate=3644 / ratetol=1.0 / qcomp=0.60 / qpmin=10 / qpmax=51 / qpstep=4 / cplxblur=20.0 / qblur=0.5 / ip_ratio=1.40 / aq=1:1.00
Язык: English

Аудио #1
Идентификатор: 2
Формат: MPEG Audio
Версия формата: Version 1
Профиль формата: Layer 3
Режим: Joint stereo
Расширение режима: MS Stereo
Идентификатор кодека: A_MPEG/L3
Идентификатор кодека/Подсказка: MP3
Продолжительность: 51 м.
Вид битрейта: Постоянный
Битрейт: 128 Кбит/сек
Канал(ы): 2 канала(ов)
Частота: 48,0 КГц
Метод сжатия: С потерями
Размер потока: 47,5 Мбайт (3%)
Заголовок: NewStudio @ CES - 4ES
Язык: Russian

Аудио #2
Идентификатор: 3
Формат: AC-3
Формат/Информация: Audio Coding 3
Расширение режима: CM (complete main)
Идентификатор кодека: A_AC3
Продолжительность: 51 м.
Вид битрейта: Постоянный
Битрейт: 384 Кбит/сек
Канал(ы): 2 канала(ов)
Расположение каналов: Front: L R
Частота: 48,0 КГц
Битовая глубина: 16 бит
Метод сжатия: С потерями
Размер потока: 142 Мбайт (9%)
Заголовок: DD 5.1 @ CES - 4ES
Язык: English

Текст
Идентификатор: 4
Формат: UTF-8
Идентификатор кодека: S_TEXT/UTF8
Идентификатор кодека/Информация: UTF-8 Plain Text
Заголовок: KarlZon (Notabenoid.com) @ CES - 4ES
Язык: Russian

Общее
Уникальный идентификатор: 179777168644368446221818712612309252340 (0x873FD2BFEAF9A6B99AF9F8ACE9E738F4)
Полное имя: C:\Tjudory_s4_e1-10_[tfile.ru]\Tjudory_s4_e4_[tfile.ru].mkv
Формат: Matroska
Размер файла: 1,14 Гбайт
Продолжительность: 49 м.
Общий поток: 3299 Кбит/сек
Название фильма: Breaking Bad 3x11 - Abiquiu @ RuTracker.org
Дата кодирования: UTC 2010-07-22 07:05:31
Программа кодирования: mkvmerge v4.0.0 ('The Stars were mine') сборка от Jun 11 2010 23:24:27
Библиотека кодирования: libebml v1.0.0 + libmatroska v1.0.0

Видео
Идентификатор: 1
Формат: AVC
Формат/Информация: Advanced Video Codec
Профиль формата: High@L3.1
Параметр CABAC формата: Да
Параметр ReFrames формата: 5 кадры
Идентификатор кодека: V_MPEG4/ISO/AVC
Продолжительность: 49 м.
Битрейт: 2785 Кбит/сек
Ширина: 1280 пикс.
Высота: 720 пикс.
Соотношение сторон: 16:9
Частота кадров: 23,976 кадр/сек
Цветовое пространство: YUV
Подвыборка цветности: 4:2:0
Битовая глубина: 8 бит
Тип развёртки: Прогрессивная
Бит/(Пиксели*Кадры): 0.126
Размер потока: 960 Мбайт (82%)
Заголовок: The Tudors S04E04 - Natural Ally @ CES - 4ES
Библиотека кодирования: x264 core 85 r1442tw
Настройки программы: cabac=1 / ref=5 / deblock=1:0:0 / analyse=0x3:0x113 / me=umh / subme=8 / psy=1 / psy_rd=1.00:0.00 / mixed_ref=1 / me_range=16 / chroma_me=1 / trellis=1 / 8x8dct=1 / cqm=0 / deadzone=21,11 / fast_pskip=1 / chroma_qp_offset=-2 / threads=6 / sliced_threads=0 / nr=0 / decimate=1 / mbaff=0 / constrained_intra=0 / bframes=3 / b_pyramid=2 / b_adapt=2 / b_bias=0 / direct=3 / wpredb=1 / wpredp=2 / keyint=240 / keyint_min=24 / scenecut=40 / intra_refresh=0 / rc_lookahead=50 / rc=2pass / mbtree=1 / bitrate=2785 / ratetol=1.0 / qcomp=0.60 / qpmin=10 / qpmax=51 / qpstep=4 / cplxblur=20.0 / qblur=0.5 / ip_ratio=1.40 / aq=1:1.00
Язык: English

Аудио #1
Идентификатор: 2
Формат: MPEG Audio
Версия формата: Version 1
Профиль формата: Layer 3
Режим: Joint stereo
Расширение режима: MS Stereo
Идентификатор кодека: A_MPEG/L3
Идентификатор кодека/Подсказка: MP3
Продолжительность: 49 м.
Вид битрейта: Постоянный
Битрейт: 128 Кбит/сек
Канал(ы): 2 канала(ов)
Частота: 48,0 КГц
Метод сжатия: С потерями
Размер потока: 45,2 Мбайт (4%)
Заголовок: NewStudio @ CES - 4ES
Язык: Russian

Аудио #2
Идентификатор: 3
Формат: AC-3
Формат/Информация: Audio Coding 3
Расширение режима: CM (complete main)
Идентификатор кодека: A_AC3
Продолжительность: 49 м.
Вид битрейта: Постоянный
Битрейт: 384 Кбит/сек
Канал(ы): 2 канала(ов)
Расположение каналов: Front: L R
Частота: 48,0 КГц
Битовая глубина: 16 бит
Метод сжатия: С потерями
Размер потока: 136 Мбайт (12%)
Заголовок: DD 5.1 @ CES - 4ES
Язык: English

Текст #1
Идентификатор: 4
Формат: UTF-8
Идентификатор кодека: S_TEXT/UTF8
Идентификатор кодека/Информация: UTF-8 Plain Text
Заголовок: Forced @ KarlZon (Notabenoid.com) @ CES - 4ES
Язык: Russian

Текст #2
Идентификатор: 5
Формат: UTF-8
Идентификатор кодека: S_TEXT/UTF8
Идентификатор кодека/Информация: UTF-8 Plain Text
Заголовок: KarlZon (Notabenoid.com) @ CES - 4ES
Язык: Russian

Общее
Уникальный идентификатор: 246818763791918770231732154504656437946 (0xB9AF9096E3046A83805A9CB9293BC2BA)
Полное имя: C:\Tjudory_s4_e1-10_[tfile.ru]\Tjudory_s4_e5_[tfile.ru].mkv
Формат: Matroska
Размер файла: 1,50 Гбайт
Продолжительность: 53 м.
Общий поток: 4041 Кбит/сек
Дата кодирования: UTC 2010-07-20 06:02:19
Программа кодирования: mkvmerge v4.0.0 ('The Stars were mine') сборка от Jun 11 2010 23:24:27
Библиотека кодирования: libebml v1.0.0 + libmatroska v1.0.0

Видео
Идентификатор: 1
Формат: AVC
Формат/Информация: Advanced Video Codec
Профиль формата: High@L3.1
Параметр CABAC формата: Да
Параметр ReFrames формата: 5 кадры
Идентификатор кодека: V_MPEG4/ISO/AVC
Продолжительность: 53 м.
Битрейт: 3527 Кбит/сек
Ширина: 1280 пикс.
Высота: 720 пикс.
Соотношение сторон: 16:9
Частота кадров: 23,976 кадр/сек
Цветовое пространство: YUV
Подвыборка цветности: 4:2:0
Битовая глубина: 8 бит
Тип развёртки: Прогрессивная
Бит/(Пиксели*Кадры): 0.160
Размер потока: 1,28 Гбайт (85%)
Заголовок: The Tudors S04E05 - Bottom of the Pot @ CES - 4ES
Библиотека кодирования: x264 core 85 r1442tw
Настройки программы: cabac=1 / ref=5 / deblock=1:0:0 / analyse=0x3:0x113 / me=umh / subme=8 / psy=1 / psy_rd=1.00:0.00 / mixed_ref=1 / me_range=16 / chroma_me=1 / trellis=1 / 8x8dct=1 / cqm=0 / deadzone=21,11 / fast_pskip=1 / chroma_qp_offset=-2 / threads=6 / sliced_threads=0 / nr=0 / decimate=1 / mbaff=0 / constrained_intra=0 / bframes=3 / b_pyramid=2 / b_adapt=2 / b_bias=0 / direct=3 / wpredb=1 / wpredp=2 / keyint=240 / keyint_min=24 / scenecut=40 / intra_refresh=0 / rc_lookahead=50 / rc=2pass / mbtree=1 / bitrate=3527 / ratetol=1.0 / qcomp=0.60 / qpmin=10 / qpmax=51 / qpstep=4 / cplxblur=20.0 / qblur=0.5 / ip_ratio=1.40 / aq=1:1.00
Язык: English

Аудио #1
Идентификатор: 2
Формат: MPEG Audio
Версия формата: Version 1
Профиль формата: Layer 3
Режим: Joint stereo
Расширение режима: MS Stereo
Идентификатор кодека: A_MPEG/L3
Идентификатор кодека/Подсказка: MP3
Продолжительность: 53 м.
Вид битрейта: Постоянный
Битрейт: 128 Кбит/сек
Канал(ы): 2 канала(ов)
Частота: 48,0 КГц
Метод сжатия: С потерями
Размер потока: 48,8 Мбайт (3%)
Заголовок: NewStudio @ CES - 4ES
Язык: Russian

Аудио #2
Идентификатор: 3
Формат: AC-3
Формат/Информация: Audio Coding 3
Расширение режима: CM (complete main)
Идентификатор кодека: A_AC3
Продолжительность: 53 м.
Вид битрейта: Постоянный
Битрейт: 384 Кбит/сек
Канал(ы): 6 канала(ов)
Расположение каналов: Front: L C R, Side: L R, LFE
Частота: 48,0 КГц
Битовая глубина: 16 бит
Метод сжатия: С потерями
Размер потока: 146 Мбайт (10%)
Заголовок: DD 5.1 @ CES - 4ES
Язык: English

Текст
Идентификатор: 4
Формат: UTF-8
Идентификатор кодека: S_TEXT/UTF8
Идентификатор кодека/Информация: UTF-8 Plain Text
Заголовок: KarlZon (Notabenoid.com) @ CES - 4ES
Язык: Russian

Общее
Уникальный идентификатор: 254566399960284728060363016579154998634 (0xBF83B48B62675C7F934CD48E768C756A)
Полное имя: C:\Tjudory_s4_e1-10_[tfile.ru]\Tjudory_s4_e6_[tfile.ru].mkv
Формат: Matroska
Размер файла: 1,13 Гбайт
Продолжительность: 47 м.
Общий поток: 3408 Кбит/сек
Дата кодирования: UTC 2010-07-22 07:12:26
Программа кодирования: mkvmerge v4.0.0 ('The Stars were mine') сборка от Jun 11 2010 23:24:27
Библиотека кодирования: libebml v1.0.0 + libmatroska v1.0.0

Видео
Идентификатор: 1
Формат: AVC
Формат/Информация: Advanced Video Codec
Профиль формата: High@L3.1
Параметр CABAC формата: Да
Параметр ReFrames формата: 4 кадры
Идентификатор кодека: V_MPEG4/ISO/AVC
Продолжительность: 47 м.
Битрейт: 2894 Кбит/сек
Ширина: 1280 пикс.
Высота: 720 пикс.
Соотношение сторон: 16:9
Частота кадров: 23,976 кадр/сек
Цветовое пространство: YUV
Подвыборка цветности: 4:2:0
Битовая глубина: 8 бит
Тип развёртки: Прогрессивная
Бит/(Пиксели*Кадры): 0.131
Размер потока: 964 Мбайт (83%)
Заголовок: The Tudors S04E06 - You Have My Permission @ CES - 4ES
Библиотека кодирования: x264 core 94 r1564 a927654
Настройки программы: cabac=1 / ref=3 / deblock=1:-2:-1 / analyse=0x3:0x113 / me=umh / subme=6 / psy=1 / psy_rd=1.00:0.00 / mixed_ref=0 / me_range=16 / chroma_me=1 / trellis=1 / 8x8dct=1 / cqm=0 / deadzone=21,11 / fast_pskip=1 / chroma_qp_offset=-2 / threads=20 / sliced_threads=0 / nr=0 / decimate=1 / interlaced=0 / constrained_intra=0 / bframes=3 / b_pyramid=2 / b_adapt=1 / b_bias=0 / direct=1 / wpredb=1 / wpredp=2 / keyint=250 / keyint_min=25 / scenecut=40 / intra_refresh=0 / rc_lookahead=40 / rc=2pass / mbtree=1 / bitrate=2894 / ratetol=1.0 / qcomp=0.60 / qpmin=10 / qpmax=51 / qpstep=4 / cplxblur=20.0 / qblur=0.5 / ip_ratio=1.40 / aq=1:1.00
Язык: English

Аудио #1
Идентификатор: 2
Формат: MPEG Audio
Версия формата: Version 1
Профиль формата: Layer 3
Режим: Joint stereo
Расширение режима: MS Stereo
Идентификатор кодека: A_MPEG/L3
Идентификатор кодека/Подсказка: MP3
Продолжительность: 47 м.
Вид битрейта: Постоянный
Битрейт: 128 Кбит/сек
Канал(ы): 2 канала(ов)
Частота: 48,0 КГц
Метод сжатия: С потерями
Размер потока: 43,6 Мбайт (4%)
Заголовок: NewStudio @ CES - 4ES
Язык: Russian

Аудио #2
Идентификатор: 3
Формат: AC-3
Формат/Информация: Audio Coding 3
Расширение режима: CM (complete main)
Идентификатор кодека: A_AC3
Продолжительность: 47 м.
Вид битрейта: Постоянный
Битрейт: 384 Кбит/сек
Канал(ы): 6 канала(ов)
Расположение каналов: Front: L C R, Side: L R, LFE
Частота: 48,0 КГц
Битовая глубина: 16 бит
Метод сжатия: С потерями
Размер потока: 131 Мбайт (11%)
Заголовок: DD 5.1 @ CES - 4ES
Язык: English

Текст #1
Идентификатор: 4
Формат: UTF-8
Идентификатор кодека: S_TEXT/UTF8
Идентификатор кодека/Информация: UTF-8 Plain Text
Заголовок: Forced @ KarlZon (Notabenoid.com) @ CES - 4ES
Язык: Russian

Текст #2
Идентификатор: 5
Формат: UTF-8
Идентификатор кодека: S_TEXT/UTF8
Идентификатор кодека/Информация: UTF-8 Plain Text
Заголовок: KarlZon (Notabenoid.com)
Язык: Russian

Общее
Уникальный идентификатор: 183934410255490616014717393240105209614 (0x8A607A9601CC9F93B7D2B2E47334CF0E)
Полное имя: C:\Tjudory_s4_e1-10_[tfile.ru]\Tjudory_s4_e7_[tfile.ru].mkv
Формат: Matroska
Размер файла: 1,50 Гбайт
Продолжительность: 52 м.
Общий поток: 4136 Кбит/сек
Дата кодирования: UTC 2010-07-24 12:45:56
Программа кодирования: mkvmerge v4.0.0 ('The Stars were mine') сборка от Jun 11 2010 23:24:27
Библиотека кодирования: libebml v1.0.0 + libmatroska v1.0.0

Видео
Идентификатор: 1
Формат: AVC
Формат/Информация: Advanced Video Codec
Профиль формата: High@L3.1
Параметр CABAC формата: Да
Параметр ReFrames формата: 3 кадры
Идентификатор кодека: V_MPEG4/ISO/AVC
Продолжительность: 52 м.
Битрейт: 3622 Кбит/сек
Ширина: 1280 пикс.
Высота: 720 пикс.
Соотношение сторон: 16:9
Частота кадров: 23,976 кадр/сек
Цветовое пространство: YUV
Подвыборка цветности: 4:2:0
Битовая глубина: 8 бит
Тип развёртки: Прогрессивная
Бит/(Пиксели*Кадры): 0.164
Размер потока: 1,29 Гбайт (86%)
Заголовок: The Tudors S04E07 - Sixth and the Final Wife @ CES - 4ES
Библиотека кодирования: x264 core 88 r1471 1144615
Настройки программы: cabac=1 / ref=3 / deblock=1:0:0 / analyse=0x3:0x113 / me=hex / subme=6 / psy=1 / psy_rd=1.00:0.00 / mixed_ref=1 / me_range=16 / chroma_me=1 / trellis=1 / 8x8dct=1 / cqm=0 / deadzone=21,11 / fast_pskip=1 / chroma_qp_offset=-2 / threads=20 / sliced_threads=0 / nr=0 / decimate=1 / mbaff=0 / constrained_intra=0 / bframes=3 / b_pyramid=1 / b_adapt=2 / b_bias=0 / direct=1 / wpredb=1 / wpredp=0 / keyint=240 / keyint_min=24 / scenecut=40 / intra_refresh=0 / rc_lookahead=40 / rc=2pass / mbtree=1 / bitrate=3622 / ratetol=1.0 / qcomp=0.60 / qpmin=10 / qpmax=51 / qpstep=4 / cplxblur=20.0 / qblur=0.5 / ip_ratio=1.40 / aq=1:1.00
Язык: English

Аудио #1
Идентификатор: 2
Формат: MPEG Audio
Версия формата: Version 1
Профиль формата: Layer 3
Режим: Joint stereo
Расширение режима: MS Stereo
Идентификатор кодека: A_MPEG/L3
Идентификатор кодека/Подсказка: MP3
Продолжительность: 52 м.
Вид битрейта: Постоянный
Битрейт: 128 Кбит/сек
Канал(ы): 2 канала(ов)
Частота: 48,0 КГц
Метод сжатия: С потерями
Размер потока: 47,7 Мбайт (3%)
Заголовок: NewStudio @ CES - 4ES
Язык: Russian

Аудио #2
Идентификатор: 3
Формат: AC-3
Формат/Информация: Audio Coding 3
Расширение режима: CM (complete main)
Идентификатор кодека: A_AC3
Продолжительность: 52 м.
Вид битрейта: Постоянный
Битрейт: 384 Кбит/сек
Канал(ы): 6 канала(ов)
Расположение каналов: Front: L C R, Side: L R, LFE
Частота: 48,0 КГц
Битовая глубина: 16 бит
Метод сжатия: С потерями
Размер потока: 143 Мбайт (9%)
Заголовок: DD 5.1 @ CES - 4ES
Язык: English

Текст #1
Идентификатор: 4
Формат: UTF-8
Идентификатор кодека: S_TEXT/UTF8
Идентификатор кодека/Информация: UTF-8 Plain Text
Заголовок: Forced @ KarlZon (Notabenoid.com) @ CES - 4ES
Язык: Russian

Текст #2
Идентификатор: 5
Формат: UTF-8
Идентификатор кодека: S_TEXT/UTF8
Идентификатор кодека/Информация: UTF-8 Plain Text
Заголовок: KarlZon (Notabenoid.com) @ CES - 4ES
Язык: Russian

Общее
Уникальный идентификатор: 201533213535542694633255123982809368520 (0x979DE294301E559A91B97C38830D07C
Полное имя: C:\Tjudory_s4_e1-10_[tfile.ru]\Tjudory_s4_e8_[tfile.ru].mkv
Формат: Matroska
Размер файла: 1,14 Гбайт
Продолжительность: 48 м.
Общий поток: 3358 Кбит/сек
Дата кодирования: UTC 2010-07-24 12:52:26
Программа кодирования: mkvmerge v4.0.0 ('The Stars were mine') сборка от Jun 11 2010 23:24:27
Библиотека кодирования: libebml v1.0.0 + libmatroska v1.0.0

Видео
Идентификатор: 1
Формат: AVC
Формат/Информация: Advanced Video Codec
Профиль формата: High@L3.1
Параметр CABAC формата: Да
Параметр ReFrames формата: 3 кадры
Идентификатор кодека: V_MPEG4/ISO/AVC
Продолжительность: 48 м.
Битрейт: 2844 Кбит/сек
Ширина: 1280 пикс.
Высота: 720 пикс.
Соотношение сторон: 16:9
Частота кадров: 23,976 кадр/сек
Цветовое пространство: YUV
Подвыборка цветности: 4:2:0
Битовая глубина: 8 бит
Тип развёртки: Прогрессивная
Бит/(Пиксели*Кадры): 0.129
Размер потока: 962 Мбайт (83%)
Заголовок: The Tudors S04E08 - As It Should Be @ CES - 4ES
Библиотека кодирования: x264 core 88 r1471 1144615
Настройки программы: cabac=1 / ref=3 / deblock=1:0:0 / analyse=0x3:0x113 / me=hex / subme=6 / psy=1 / psy_rd=1.00:0.00 / mixed_ref=1 / me_range=16 / chroma_me=1 / trellis=1 / 8x8dct=1 / cqm=0 / deadzone=21,11 / fast_pskip=1 / chroma_qp_offset=-2 / threads=20 / sliced_threads=0 / nr=0 / decimate=1 / mbaff=0 / constrained_intra=0 / bframes=3 / b_pyramid=1 / b_adapt=2 / b_bias=0 / direct=1 / wpredb=1 / wpredp=0 / keyint=240 / keyint_min=24 / scenecut=40 / intra_refresh=0 / rc_lookahead=40 / rc=2pass / mbtree=1 / bitrate=2844 / ratetol=1.0 / qcomp=0.60 / qpmin=10 / qpmax=51 / qpstep=4 / cplxblur=20.0 / qblur=0.5 / ip_ratio=1.40 / aq=1:1.00
Язык: English

Аудио #1
Идентификатор: 2
Формат: MPEG Audio
Версия формата: Version 1
Профиль формата: Layer 3
Режим: Joint stereo
Расширение режима: MS Stereo
Идентификатор кодека: A_MPEG/L3
Идентификатор кодека/Подсказка: MP3
Продолжительность: 48 м.
Вид битрейта: Постоянный
Битрейт: 128 Кбит/сек
Канал(ы): 2 канала(ов)
Частота: 48,0 КГц
Метод сжатия: С потерями
Размер потока: 44,3 Мбайт (4%)
Заголовок: NewStudio @ CES - 4ES
Язык: Russian

Аудио #2
Идентификатор: 3
Формат: AC-3
Формат/Информация: Audio Coding 3
Расширение режима: CM (complete main)
Идентификатор кодека: A_AC3
Продолжительность: 48 м.
Вид битрейта: Постоянный
Битрейт: 384 Кбит/сек
Канал(ы): 6 канала(ов)
Расположение каналов: Front: L C R, Side: L R, LFE
Частота: 48,0 КГц
Битовая глубина: 16 бит
Метод сжатия: С потерями
Размер потока: 133 Мбайт (11%)
Заголовок: DD 5.1 @ CES - 4ES
Язык: English

Текст #1
Идентификатор: 4
Формат: UTF-8
Идентификатор кодека: S_TEXT/UTF8
Идентификатор кодека/Информация: UTF-8 Plain Text
Заголовок: Forced @ KarlZon (Notabenoid.com) @ CES - 4ES
Язык: Russian

Текст #2
Идентификатор: 5
Формат: UTF-8
Идентификатор кодека: S_TEXT/UTF8
Идентификатор кодека/Информация: UTF-8 Plain Text
Заголовок: KarlZon (Notabenoid.com) @ CES - 4ES
Язык: Russian

Общее
Уникальный идентификатор: 197367042168981355527706527361235959941 (0x947B8278BD4D3DD387EF91C44A4C4085)
Полное имя: C:\Tjudory_s4_e1-10_[tfile.ru]\Tjudory_s4_e9_[tfile.ru].mkv
Формат: Matroska
Размер файла: 1,51 Гбайт
Продолжительность: 55 м.
Общий поток: 3858 Кбит/сек
Дата кодирования: UTC 2010-07-24 21:44:45
Программа кодирования: mkvmerge v4.0.0 ('The Stars were mine') сборка от Jun 11 2010 23:24:27
Библиотека кодирования: libebml v1.0.0 + libmatroska v1.0.0

Видео
Идентификатор: 1
Формат: AVC
Формат/Информация: Advanced Video Codec
Профиль формата: High@L3.1
Параметр CABAC формата: Да
Параметр ReFrames формата: 5 кадры
Параметры GOP формата: M=2, N=18
Идентификатор кодека: V_MPEG4/ISO/AVC
Продолжительность: 55 м.
Битрейт: 3344 Кбит/сек
Ширина: 1280 пикс.
Высота: 720 пикс.
Соотношение сторон: 16:9
Частота кадров: 23,976 кадр/сек
Цветовое пространство: YUV
Подвыборка цветности: 4:2:0
Битовая глубина: 8 бит
Тип развёртки: Прогрессивная
Бит/(Пиксели*Кадры): 0.151
Размер потока: 1,28 Гбайт (85%)
Заголовок: The Tudors S04E09 - Secrets of the Heart @ CES - 4ES
Библиотека кодирования: x264 core 96 r1602 69588a7
Настройки программы: cabac=1 / ref=5 / deblock=1:0:0 / analyse=0x3:0x133 / me=umh / subme=8 / psy=1 / psy_rd=1.00:0.00 / mixed_ref=1 / me_range=16 / chroma_me=1 / trellis=1 / 8x8dct=1 / cqm=0 / deadzone=21,11 / fast_pskip=1 / chroma_qp_offset=-2 / threads=12 / sliced_threads=0 / nr=0 / decimate=1 / interlaced=0 / constrained_intra=0 / bframes=3 / b_pyramid=2 / b_adapt=1 / b_bias=0 / direct=1 / weightb=1 / weightp=2 / keyint=250 / keyint_min=25 / scenecut=40 / intra_refresh=0 / rc_lookahead=30 / rc=2pass / mbtree=1 / bitrate=3344 / ratetol=1.0 / qcomp=0.60 / qpmin=10 / qpmax=51 / qpstep=4 / cplxblur=20.0 / qblur=0.5 / ip_ratio=1.40 / aq=1:1.00
Язык: English

Аудио #1
Идентификатор: 2
Формат: MPEG Audio
Версия формата: Version 1
Профиль формата: Layer 3
Режим: Joint stereo
Расширение режима: MS Stereo
Идентификатор кодека: A_MPEG/L3
Идентификатор кодека/Подсказка: MP3
Продолжительность: 55 м.
Вид битрейта: Постоянный
Битрейт: 128 Кбит/сек
Канал(ы): 2 канала(ов)
Частота: 48,0 КГц
Метод сжатия: С потерями
Размер потока: 51,2 Мбайт (3%)
Заголовок: NewStudio @ CES - 4ES
Язык: Russian

Аудио #2
Идентификатор: 3
Формат: AC-3
Формат/Информация: Audio Coding 3
Расширение режима: CM (complete main)
Идентификатор кодека: A_AC3
Продолжительность: 55 м.
Вид битрейта: Постоянный
Битрейт: 384 Кбит/сек
Канал(ы): 6 канала(ов)
Расположение каналов: Front: L C R, Side: L R, LFE
Частота: 48,0 КГц
Битовая глубина: 16 бит
Метод сжатия: С потерями
Размер потока: 154 Мбайт (10%)
Заголовок: DD 5.1 @ CES - 4ES
Язык: English

Текст
Идентификатор: 4
Формат: UTF-8
Идентификатор кодека: S_TEXT/UTF8
Идентификатор кодека/Информация: UTF-8 Plain Text
Заголовок: KarlZon (Notabenoid.com) @ CES - 4ES
Язык: Russian


[/field]






















Поделиться:




реклама партнёра


Вернуться к началу
 Профиль Отправить личное сообщение  
 
   Похожие торренты   Автор   Торрент   Размер 
В этой теме нет новых непрочитанных сообщений. Викинги / Vikings (Сезон 4, Серия 1-10 из 20) (Йохан Ренк, Киаран Доннелли) [2016 , Исторический, драма, приключения, боевик, викинги , WEB-DLRip 1080p] [AlexFilm , LostFilm , OMSKBIRD , NewStudio , BaibaKo] + [Subs Rus , Eng]

Враг Нароода

3 | 1

27.41 ГБ

В этой теме нет новых непрочитанных сообщений. Викинги / Vikings (Сезон 1-3, Серии 1-20 из 29) (Киаран Доннелли, Йохан Ренк, Кен Джиротти) [2013-2015, Историческая драма, приключения, боевик, викинги, WEBDLRip-AVC 1080р] [DD5.1] [MVO] [NewStudio]

Враг Нароода

В этой теме нет новых непрочитанных сообщений. Викинги / Vikings (Сезон 1-3, Серии 1-21 из 29) (Киаран Доннелли, Йохан Ренк, Кен Джиротти) [2013-2015, Историческая драма, приключения, боевик, викинги, WEBDLRip-AVC 1080р] [DD5.1] [MVO] [NewStudio]

Враг Нароода

1 | 3

39.3 ГБ

В этой теме нет новых непрочитанных сообщений. Викинги / Vikings (Сезон 3, Серии 1-10 из 10) (Киаран Доннелли, Йохан Ренк, Кен Джиротти) [2015, Историческая драма, приключения, боевик, викинги, WEBDLRip] [DD5.1] [MVO] [LostFilm,AlexFilm,NewStudio,BaibaKo]

Враг Нароода

1 | 2

19.05 ГБ

В этой теме нет новых непрочитанных сообщений. Череп и кости / Crossbones (Сезон 1, Серии 1-9 из 9) (Дэвид Слэйд, Киаран Доннелли, Дэниэл Эттиэс, Терри Макдонаф, Деран Сарафян, Стив Шилл) [2014, Драма, приключения, экранизация, WEBDLRip-AVC 1080р] [DD5.1] [MVO] [AlexFilm]

Враг Нароода

38 | 8

20.75 ГБ

В этой теме нет новых непрочитанных сообщений. Череп и кости / Crossbones (Сезон 1, Серии 1-7 из 10) (Дэвид Слэйд, Киаран Доннелли, Дэниэл Эттиэс, Терри Макдонаф, Деран Сарафян, Стив Шилл) [2014, Драма, приключения, экранизация, WEBDLRip-AVC 1080р] [DD5.1] [MVO] [AlexFilm]

Nikolai.Baranov

3 | 15

16.33 ГБ

В этой теме нет новых непрочитанных сообщений. Викинги / Vikings [03х01-10 из 10] (Йохан Ренк, Киаран Доннелли, Кен Джиротти) [боевик, драма, военный, история, 2015] WEB-DL 1080p, Mvo [AlexFilm]

Dracon

53 | 49

18.36 ГБ


Начать новую тему Ответить на тему  [ 1 сообщение ] 




Для Мосгорсуда, Роскомнадзора и рекламодателей:: mosgorsud-torrent[собачка]yandex.ru