Торрент файл
скачать торрент магнет ссылка Добавлен: 17 дек 2011, 20:59
Размер: 7.67 ГБ
Сидеров: 11
Личеров: 11
Автор

СообщениеДобавлено: 17 дек 2011, 20:59 

Не в сети
Супермодератор
Аватара пользователя
Дата регистрации:
11 апр 2010, 18:10
Спасибо: 5962 / 7
Сообщения: 56765
Россия молодая

Перевод: Не требуется, cубтитры: отсутствуют

Формат: DVDRip, MP4, H.264 (AVC), AC3

Страна: СССР

Режиссер: Илья Гурин

Жанр: Исторический

Всего серий: 9

Продолжительность: 9 х ~ 01:10

Год выпуска: 1982

В ролях: Борис Невзоров, Александр Фатюшин, Степан Старчиков, Олег Борисов, Александра Яковлева, Дмитрий Золотухин, Николай Иванов, Иван Лапиков, Владислав Стржельчик, Бруно Френдлих, Михаил Кузнецов, Леонид Харитонов

Описание:
Потом и кровью достаётся молодому царю Петру строительство новой России. "Окно в Европу" прорубается на русском Севере, и здесь кипит жизнь, полная опасных приключений. Суровое время, сильные люди, подвиги во славу Отечества, грохот сражений и неподдельные чувства воссоздают подлинную картину становления русского морского флота.
"Росси́я молода́я" (1981—1982) — 9-серийный телевизионный художественный фильм Ильи Гурина об эпохе Петра I. Экранизация одноимённого романа Юрия Германа.
Действие фильма происходит в эпоху Петра I на Русском Севере. В центре сюжета судьбы трёх человек: капитана-командора Сильвестра Иевлева, поручика таможенного войска Афанасия Крыкова и кормщика-помора Ивана Рябова.
Иван Рябов — реальный исторический персонаж. В 1701 вместе с церковным служкой Дмитрием Борисовым совершил подвиг, в качестве кормщика под видом предателей посадив головной корабль шведской эскадры на мель под огонь береговой батареи.
Иевлев, Сильвестр Петрович — реальный исторический персонаж. Стольник Петра Первого, участник строительства Новодвинской крепости. Руководил действиями береговых батарей во время обороны Архангельска от шведской военной эскадры Карла XII в 1701 году.
Фильм является точной экранизацией почти всего романа, за исключением последних глав.


Рейтинг на:

Релиз группы:



Видео: 768x576 (4:3), 25.00fps, MPEG4 Video (H264-AVC), 1400 kbps, 0.127 bit/pixel
Аудио: 48 kHz, AC3 Dolby Digital, 6 ch, 384 kbps

[Параметры видео и аудио идентичны у всех серий]

- видео и аудио дорожки лучше по качеству.

Серия 1. Морского дела старатели
Серия 2. Мужание
Серия 3. Беда за бедой
Серия 4. Страшей, чем шторм
Серия 5. Крепости быть!
Серия 6. Здравствуй, кормщик!
Серия 7. Нашествие
Серия 8. Правда против кривды
Серия 9. Ветер Балтики

MediaInfo: General
Complete name: C:\Закачки\Сериалы\Rossia_moloday_[tfile.ru]\Серия 1. Морского дела старатели.mp4
Format: Matroska
File size: 850 MiB
Duration: 1h 6mn
Overall bit rate: 1 787 Kbps
Encoded date: UTC 2010-10-28 13:49:27
Writing application: mkvmerge v2.4.0 ('Fumbling Towards Ecstasy') built on Oct 11 2008 20:13:15
Writing library: libebml v0.7.7 + libmatroska v0.8.1

Video
ID: 1
Format: AVC
Format/Info: Advanced Video Codec
Format profile: High@L4.1
Format settings, CABAC: Yes
Format settings, ReFrames: 10 frames
Format settings, GOP: N=1
Muxing mode: Container profile=Unknown@4.1
Codec ID: V_MPEG4/ISO/AVC
Duration: 1h 6mn
Bit rate: 1 400 Kbps
Width: 768 pixels
Height: 576 pixels
Display aspect ratio: 4:3
Frame rate: 25.000 fps
Color space: YUV
Chroma subsampling: 4:2:0
Bit depth: 8 bits
Scan type: Progressive
Bits/(Pixel*Frame): 0.127
Stream size: 650 MiB (77%)
Writing library: x264 core 65 r999kMod cc51047
Encoding settings: cabac=1 / ref=10 / deblock=1:-3:-3 / analyse=0x3:0x133 / me=umh / subme=9 / psy_rd=1.0:0.0 / mixed_ref=1 / me_range=32 / chroma_me=1 / trellis=2 / 8x8dct=1 / cqm=0 / deadzone=21,11 / chroma_qp_offset=-2 / threads=4 / thread_queue=4 / nr=0 / decimate=1 / mbaff=0 / bframes=6 / b_pyramid=1 / b_adapt=1 / b_bias=0 / direct=3 / wpredb=1 / keyint=250 / keyint_min=25 / scenecut=40(pre) / rc=2pass / bitrate=1400 / ratetol=1.0 / qcomp=0.60 / qpmin=16 / qpmax=51 / qpstep=4 / cplxblur=20.0 / qblur=0.5 / ip_ratio=1.40 / pb_ratio=1.30 / aq=1:1.00
Language: Russian

Audio
ID: 2
Format: AC-3
Format/Info: Audio Coding 3
Mode extension: CM (complete main)
Codec ID: A_AC3
Duration: 1h 6mn
Bit rate mode: Constant
Bit rate: 384 Kbps
Channel(s): 6 channels
Channel positions: Front: L C R, Side: L R, LFE
Sampling rate: 48.0 KHz
Stream size: 183 MiB (21%)
Language: Russian











Поделиться:




реклама партнёра


Вернуться к началу
 Профиль Отправить личное сообщение  
 
   Похожие торренты   Автор   Торрент   Размер 
В этой теме нет новых непрочитанных сообщений. 4 (Илья Хржановский) [2005, драма, фантастика, триллер, DVDRip]

marya111

56 | 14

1.46 ГБ

В этой теме нет новых непрочитанных сообщений. Мы ждём вас с победой (Илья Трауберг, Александр Медведкин) [1941, музыка, DVDRip]

Nickolas3435

6 | 6

495.66 МБ

В этой теме нет новых непрочитанных сообщений. Молодая влюбленная парочка (2015) HD 720р

Dievas

76 | 55

92.65 МБ

В этой теме нет новых непрочитанных сообщений. Молодая [2015 г., Amateur, Oral, CamRip]

Dievas

3 | 0

111.9 МБ

В этой теме нет новых непрочитанных сообщений. Молодая училка [2014 г., Amateur, CamRip 384p]

friizze

7 | 2

23.87 МБ

В этой теме нет новых непрочитанных сообщений. Молодая модница [2016 г., Amateur, All Sex, Anal, CamRip]

Dievas

13 | 1

140.54 МБ

В этой теме нет новых непрочитанных сообщений. Молодая прошмандовка [2016 г., Amateur, Homemade, All Sex, CamRip]

Dievas

0 | 0

138.94 МБ


Начать новую тему Ответить на тему  [ 1 сообщение ] 




Для Мосгорсуда, Роскомнадзора и рекламодателей:: mosgorsud-torrent[собачка]yandex.ru