Торрент файл
скачать торрент магнет ссылка Добавлен: 17 дек 2011, 19:28
Размер: 8.73 ГБ
Сидеров: 9
Личеров: 5
Автор

СообщениеДобавлено: 17 дек 2011, 19:28 

Не в сети
Супермодератор
Аватара пользователя
Дата регистрации:
11 апр 2010, 18:10
Спасибо: 5921 / 7
Сообщения: 56776
Котовский (8 серий из 8 )



Перевод: Не требуется, cубтитры: отсутствуют
Формат: HDRip, MKV, H.264, AC3
Страна: Россия , Украина
Режиссер: Станислав Назиров
Жанр: драма, приключения, история
Всего серий: 8
Продолжительность: 8 х 00:45
Год выпуска: 2009

В ролях: Владислав Галкин, Ирина Наумкина, Марина Александрова, Александр Макогон, Михаил Крылов, Иван Стебунов, Максим Лагашкин, Михаил Ефремов, Андрей Гусев, Александр Пашутин

Описание: Жизнь и обстоятельства гибели красного командира Григория Ивановича Котовского до сих пор окутаны тайной. Котовский — одна из наиболее ярких фигур Октябрьской революции. Необычайная смелость, отвага и разбойничья удаль создали легенды вокруг его имени.

Потомок старинного польского аристократического рода, Котовский прошел большой революционный путь и стал признанным военным командиром: шесть раз он бежал из тюрьмы, был приговорен к смертной казни и вновь бежал, чтобы стать одним из самых пламенных воинов революции. Его знаменитая конная бригада билась с врагом под Киевом и Белой Церковью, у Николаева и Одессы, и нигде не знала поражений.

Одесса, 1917 год. Атамана Григория Ивановича Котовского освобождают из тюрьмы. Встречают его друзья детства, в воспоминаниях Котовского сразу всплывают годы, проведенные в училище: уличные драки, мальчишеские разборки, промысел жульничеством и первая любовь. И вот Григорий Иванович сообщает друзьям, что его отправляют на фронт воевать за свободную Россию…

В ретроспективах фильма зритель увидит Григория Котовского не только как военного командира и героя гражданской войны. Способность к настоящей дружбе и любовь, противостояние зависти, чувство долга и сложный выбор — личность Котовского и его богатый внутренний мир будут раскрываться зрителю постепенно.




Видео: 1024x576 (16:9)/ 24 fps, MPEG4-AVC (x264) High@L4.1, 3036 kbps, 0.214 bit/pixel
Аудио: 48 kHz, AC3, 6 ch (Front: L C R, Side: L R, LFE), ~448 kbps



Общее
Уникальный идентификатор: 212250834081877775175968846461088062424 (0x9FAE0611B952B391A46A530BFBC85BD
Полное имя: D:\Для раздачи\Kotovskii_s8_[tfile.ru]\Серия_01_[tfile.ru].mkv
Формат: Matroska
Размер файла: 1,09 Гбайт
Продолжительность: 44 м.
Общий поток: 3486 Кбит/сек
Название фильма: Котовский - 01 серия
Дата кодирования: UTC 2011-03-03 18:12:56
Программа кодирования: mkvmerge v4.5.0 ('Speed of Light') сборка от Feb6 2011 12:51:39
Библиотека кодирования: libebml v1.2.0 + libmatroska v1.1.0

Видео
Идентификатор: 1
Формат: AVC
Формат/Информация: Advanced Video Codec
Профиль формата: High@L4.1
Параметр CABAC формата: Да
Параметр ReFrames формата: 10 кадры
Режим смешивания: Header stripping
Идентификатор кодека: V_MPEG4/ISO/AVC
Продолжительность: 44 м.
Битрейт: 3036 Кбит/сек
Ширина: 1024 пикс.
Высота: 576 пикс.
Соотношение сторон: 16:9
Частота кадров: 24,000 кадр/сек
Цветовое пространство: YUV
Подвыборка цветности: 4:2:0
Битовая глубина: 8 бит
Тип развёртки: Прогрессивная
Бит/(Пиксели*Кадры): 0.214
Размер потока: 951 Мбайт (85%)
Библиотека кодирования: x264 core 92 r1510 33d382a
Настройки программы: cabac=1 / ref=10 / deblock=1:-2:-2 / analyse=0x3:0x133 / me=umh / subme=10 / psy=1 / psy_rd=1.00:0.10 / mixed_ref=1 / me_range=32 / chroma_me=1 / trellis=2 / 8x8dct=1 / cqm=0 / deadzone=21,11 / fast_pskip=0 / chroma_qp_offset=-3 / threads=3 / sliced_threads=0 / nr=0 / decimate=1 / interlaced=0 / constrained_intra=0 / bframes=10 / b_pyramid=2 / b_adapt=1 / b_bias=0 / direct=3 / wpredb=1 / wpredp=2 / keyint=250 / keyint_min=25 / scenecut=40 / intra_refresh=0 / rc_lookahead=50 / rc=2pass / mbtree=1 / bitrate=3036 / ratetol=1.0 / qcomp=0.60 / qpmin=10 / qpmax=51 / qpstep=4 / cplxblur=20.0 / qblur=0.5 / ip_ratio=1.40 / aq=1:1.00
Язык: Russian

Аудио
Идентификатор: 2
Формат: AC-3
Формат/Информация: Audio Coding 3
Расширение режима: CM (complete main)
Режим смешивания: Header stripping
Идентификатор кодека: A_AC3
Продолжительность: 44 м.
Вид битрейта: Постоянный
Битрейт: 448 Кбит/сек
Канал(ы): 6 канала(ов)
Расположение каналов: Front: L C R, Side: L R, LFE
Частота: 48,0 КГц
Битовая глубина: 16 бит
Метод сжатия: С потерями
Размер потока: 144 Мбайт (13%)
Язык: Russian

Общее
Уникальный идентификатор: 175426079084943740380532294857499841995 (0x83F9D578BDBBA3C8BBA4332C36FB95CB)
Полное имя: D:\Для раздачи\Kotovskii_s8_[tfile.ru]\Серия_02_[tfile.ru].mkv
Формат: Matroska
Размер файла: 1,09 Гбайт
Продолжительность: 46 м.
Общий поток: 3330 Кбит/сек
Название фильма: Котовский - 02 серия
Дата кодирования: UTC 2011-03-03 18:16:25
Программа кодирования: mkvmerge v4.5.0 ('Speed of Light') сборка от Feb6 2011 12:51:39
Библиотека кодирования: libebml v1.2.0 + libmatroska v1.1.0

Видео
Идентификатор: 1
Формат: AVC
Формат/Информация: Advanced Video Codec
Профиль формата: High@L4.1
Параметр CABAC формата: Да
Параметр ReFrames формата: 10 кадры
Параметры GOP формата: M=11, N=22
Режим смешивания: Header stripping
Идентификатор кодека: V_MPEG4/ISO/AVC
Продолжительность: 46 м.
Битрейт: 2882 Кбит/сек
Ширина: 1024 пикс.
Высота: 576 пикс.
Соотношение сторон: 16:9
Частота кадров: 24,000 кадр/сек
Цветовое пространство: YUV
Подвыборка цветности: 4:2:0
Битовая глубина: 8 бит
Тип развёртки: Прогрессивная
Бит/(Пиксели*Кадры): 0.204
Размер потока: 944 Мбайт (85%)
Библиотека кодирования: x264 core 92 r1510 33d382a
Настройки программы: cabac=1 / ref=10 / deblock=1:-2:-2 / analyse=0x3:0x133 / me=umh / subme=10 / psy=1 / psy_rd=1.00:0.10 / mixed_ref=1 / me_range=32 / chroma_me=1 / trellis=2 / 8x8dct=1 / cqm=0 / deadzone=21,11 / fast_pskip=0 / chroma_qp_offset=-3 / threads=3 / sliced_threads=0 / nr=0 / decimate=1 / interlaced=0 / constrained_intra=0 / bframes=10 / b_pyramid=2 / b_adapt=1 / b_bias=0 / direct=3 / wpredb=1 / wpredp=2 / keyint=250 / keyint_min=25 / scenecut=40 / intra_refresh=0 / rc_lookahead=50 / rc=2pass / mbtree=1 / bitrate=2882 / ratetol=1.0 / qcomp=0.60 / qpmin=10 / qpmax=51 / qpstep=4 / cplxblur=20.0 / qblur=0.5 / ip_ratio=1.40 / aq=1:1.00
Язык: Russian

Аудио
Идентификатор: 2
Формат: AC-3
Формат/Информация: Audio Coding 3
Расширение режима: CM (complete main)
Режим смешивания: Header stripping
Идентификатор кодека: A_AC3
Продолжительность: 46 м.
Вид битрейта: Постоянный
Битрейт: 448 Кбит/сек
Канал(ы): 6 канала(ов)
Расположение каналов: Front: L C R, Side: L R, LFE
Частота: 48,0 КГц
Битовая глубина: 16 бит
Метод сжатия: С потерями
Размер потока: 150 Мбайт (13%)
Язык: Russian

Общее
Уникальный идентификатор: 239671358812724298733616852634785753405 (0xB44F065118CDC5EA9DDD0EE622BF293D)
Полное имя: D:\Для раздачи\Kotovskii_s8_[tfile.ru]\Серия_03_[tfile.ru].mkv
Формат: Matroska
Размер файла: 1,09 Гбайт
Продолжительность: 44 м.
Общий поток: 3545 Кбит/сек
Название фильма: Котовский - 03 серия
Дата кодирования: UTC 2011-03-03 18:36:22
Программа кодирования: mkvmerge v4.5.0 ('Speed of Light') сборка от Feb6 2011 12:51:39
Библиотека кодирования: libebml v1.2.0 + libmatroska v1.1.0

Видео
Идентификатор: 1
Формат: AVC
Формат/Информация: Advanced Video Codec
Профиль формата: High@L4.1
Параметр CABAC формата: Да
Параметр ReFrames формата: 10 кадры
Режим смешивания: Header stripping
Идентификатор кодека: V_MPEG4/ISO/AVC
Продолжительность: 44 м.
Битрейт: 3098 Кбит/сек
Ширина: 1024 пикс.
Высота: 576 пикс.
Соотношение сторон: 16:9
Частота кадров: 24,000 кадр/сек
Цветовое пространство: YUV
Подвыборка цветности: 4:2:0
Битовая глубина: 8 бит
Тип развёртки: Прогрессивная
Бит/(Пиксели*Кадры): 0.219
Размер потока: 954 Мбайт (85%)
Заголовок: (2009) Котовский. Серия 03 - релиз подготовил -Джон Коннор- для rutracker.org
Библиотека кодирования: x264 core 92 r1510 33d382a
Настройки программы: cabac=1 / ref=10 / deblock=1:-2:-2 / analyse=0x3:0x133 / me=umh / subme=10 / psy=1 / psy_rd=1.00:0.10 / mixed_ref=1 / me_range=32 / chroma_me=1 / trellis=2 / 8x8dct=1 / cqm=0 / deadzone=21,11 / fast_pskip=0 / chroma_qp_offset=-3 / threads=3 / sliced_threads=0 / nr=0 / decimate=1 / interlaced=0 / constrained_intra=0 / bframes=10 / b_pyramid=2 / b_adapt=1 / b_bias=0 / direct=3 / wpredb=1 / wpredp=2 / keyint=250 / keyint_min=25 / scenecut=40 / intra_refresh=0 / rc_lookahead=50 / rc=2pass / mbtree=1 / bitrate=3098 / ratetol=1.0 / qcomp=0.60 / qpmin=10 / qpmax=51 / qpstep=4 / cplxblur=20.0 / qblur=0.5 / ip_ratio=1.40 / aq=1:1.00
Язык: Russian

Аудио
Идентификатор: 2
Формат: AC-3
Формат/Информация: Audio Coding 3
Расширение режима: CM (complete main)
Режим смешивания: Header stripping
Идентификатор кодека: A_AC3
Продолжительность: 44 м.
Вид битрейта: Постоянный
Битрейт: 448 Кбит/сек
Канал(ы): 6 канала(ов)
Расположение каналов: Front: L C R, Side: L R, LFE
Частота: 48,0 КГц
Битовая глубина: 16 бит
Метод сжатия: С потерями
Размер потока: 141 Мбайт (13%)
Язык: Russian

Общее
Уникальный идентификатор: 233904558154856949092896099285277178157 (0xAFF86117B3A7DB19BA38A14D357D792D)
Полное имя: D:\Для раздачи\Kotovskii_s8_[tfile.ru]\Серия_04_[tfile.ru].mkv
Формат: Matroska
Размер файла: 1,09 Гбайт
Продолжительность: 44 м.
Общий поток: 3528 Кбит/сек
Название фильма: Котовский - 04 серия
Дата кодирования: UTC 2011-03-03 18:41:19
Программа кодирования: mkvmerge v4.5.0 ('Speed of Light') сборка от Feb6 2011 12:51:39
Библиотека кодирования: libebml v1.2.0 + libmatroska v1.1.0

Видео
Идентификатор: 1
Формат: AVC
Формат/Информация: Advanced Video Codec
Профиль формата: High@L4.1
Параметр CABAC формата: Да
Параметр ReFrames формата: 10 кадры
Режим смешивания: Header stripping
Идентификатор кодека: V_MPEG4/ISO/AVC
Продолжительность: 44 м.
Битрейт: 3081 Кбит/сек
Ширина: 1024 пикс.
Высота: 576 пикс.
Соотношение сторон: 16:9
Частота кадров: 24,000 кадр/сек
Цветовое пространство: YUV
Подвыборка цветности: 4:2:0
Битовая глубина: 8 бит
Тип развёртки: Прогрессивная
Бит/(Пиксели*Кадры): 0.218
Размер потока: 953 Мбайт (85%)
Библиотека кодирования: x264 core 92 r1510 33d382a
Настройки программы: cabac=1 / ref=10 / deblock=1:-2:-2 / analyse=0x3:0x133 / me=umh / subme=10 / psy=1 / psy_rd=1.00:0.10 / mixed_ref=1 / me_range=32 / chroma_me=1 / trellis=2 / 8x8dct=1 / cqm=0 / deadzone=21,11 / fast_pskip=0 / chroma_qp_offset=-3 / threads=3 / sliced_threads=0 / nr=0 / decimate=1 / interlaced=0 / constrained_intra=0 / bframes=10 / b_pyramid=2 / b_adapt=1 / b_bias=0 / direct=3 / wpredb=1 / wpredp=2 / keyint=250 / keyint_min=25 / scenecut=40 / intra_refresh=0 / rc_lookahead=50 / rc=2pass / mbtree=1 / bitrate=3081 / ratetol=1.0 / qcomp=0.60 / qpmin=10 / qpmax=51 / qpstep=4 / cplxblur=20.0 / qblur=0.5 / ip_ratio=1.40 / aq=1:1.00
Язык: Russian

Аудио
Идентификатор: 2
Формат: AC-3
Формат/Информация: Audio Coding 3
Расширение режима: CM (complete main)
Режим смешивания: Header stripping
Идентификатор кодека: A_AC3
Продолжительность: 44 м.
Вид битрейта: Постоянный
Битрейт: 448 Кбит/сек
Канал(ы): 6 канала(ов)
Расположение каналов: Front: L C R, Side: L R, LFE
Частота: 48,0 КГц
Битовая глубина: 16 бит
Метод сжатия: С потерями
Размер потока: 142 Мбайт (13%)
Язык: Russian

Общее
Уникальный идентификатор: 215601352701600095556550173089134754420 (0xA2334F64251AEF699F5ECCDA416B3A74)
Полное имя: D:\Для раздачи\Kotovskii_s8_[tfile.ru]\Серия_05_[tfile.ru].mkv
Формат: Matroska
Размер файла: 1,09 Гбайт
Продолжительность: 44 м.
Общий поток: 3484 Кбит/сек
Название фильма: Котовский - 05 серия
Дата кодирования: UTC 2011-03-03 18:46:49
Программа кодирования: mkvmerge v4.5.0 ('Speed of Light') сборка от Feb6 2011 12:51:39
Библиотека кодирования: libebml v1.2.0 + libmatroska v1.1.0

Видео
Идентификатор: 1
Формат: AVC
Формат/Информация: Advanced Video Codec
Профиль формата: High@L4.1
Параметр CABAC формата: Да
Параметр ReFrames формата: 10 кадры
Режим смешивания: Header stripping
Идентификатор кодека: V_MPEG4/ISO/AVC
Продолжительность: 44 м.
Битрейт: 3033 Кбит/сек
Ширина: 1024 пикс.
Высота: 576 пикс.
Соотношение сторон: 16:9
Частота кадров: 24,000 кадр/сек
Цветовое пространство: YUV
Подвыборка цветности: 4:2:0
Битовая глубина: 8 бит
Тип развёртки: Прогрессивная
Бит/(Пиксели*Кадры): 0.214
Размер потока: 953 Мбайт (85%)
Библиотека кодирования: x264 core 92 r1510 33d382a
Настройки программы: cabac=1 / ref=10 / deblock=1:-2:-2 / analyse=0x3:0x133 / me=umh / subme=10 / psy=1 / psy_rd=1.00:0.10 / mixed_ref=1 / me_range=32 / chroma_me=1 / trellis=2 / 8x8dct=1 / cqm=0 / deadzone=21,11 / fast_pskip=0 / chroma_qp_offset=-3 / threads=3 / sliced_threads=0 / nr=0 / decimate=1 / interlaced=0 / constrained_intra=0 / bframes=10 / b_pyramid=2 / b_adapt=1 / b_bias=0 / direct=3 / wpredb=1 / wpredp=2 / keyint=250 / keyint_min=25 / scenecut=40 / intra_refresh=0 / rc_lookahead=50 / rc=2pass / mbtree=1 / bitrate=3033 / ratetol=1.0 / qcomp=0.60 / qpmin=10 / qpmax=51 / qpstep=4 / cplxblur=20.0 / qblur=0.5 / ip_ratio=1.40 / aq=1:1.00
Язык: Russian

Аудио
Идентификатор: 2
Формат: AC-3
Формат/Информация: Audio Coding 3
Расширение режима: CM (complete main)
Режим смешивания: Header stripping
Идентификатор кодека: A_AC3
Продолжительность: 44 м.
Вид битрейта: Постоянный
Битрейт: 448 Кбит/сек
Канал(ы): 6 канала(ов)
Расположение каналов: Front: L C R, Side: L R, LFE
Частота: 48,0 КГц
Битовая глубина: 16 бит
Метод сжатия: С потерями
Размер потока: 144 Мбайт (13%)
Язык: Russian

Общее
Уникальный идентификатор: 200335040344824296050731237618080548783 (0x96B7201461EB46178D69FE835AA007AF)
Полное имя: D:\Для раздачи\Kotovskii_s8_[tfile.ru]\Серия_06_[tfile.ru].mkv
Формат: Matroska
Размер файла: 1,09 Гбайт
Продолжительность: 45 м.
Общий поток: 3405 Кбит/сек
Название фильма: Котовский - 06 серия
Дата кодирования: UTC 2011-03-03 18:50:40
Программа кодирования: mkvmerge v4.5.0 ('Speed of Light') сборка от Feb6 2011 12:51:39
Библиотека кодирования: libebml v1.2.0 + libmatroska v1.1.0

Видео
Идентификатор: 1
Формат: AVC
Формат/Информация: Advanced Video Codec
Профиль формата: High@L4.1
Параметр CABAC формата: Да
Параметр ReFrames формата: 10 кадры
Режим смешивания: Header stripping
Идентификатор кодека: V_MPEG4/ISO/AVC
Продолжительность: 45 м.
Битрейт: 2957 Кбит/сек
Ширина: 1024 пикс.
Высота: 576 пикс.
Соотношение сторон: 16:9
Частота кадров: 24,000 кадр/сек
Цветовое пространство: YUV
Подвыборка цветности: 4:2:0
Битовая глубина: 8 бит
Тип развёртки: Прогрессивная
Бит/(Пиксели*Кадры): 0.209
Размер потока: 949 Мбайт (85%)
Библиотека кодирования: x264 core 92 r1510 33d382a
Настройки программы: cabac=1 / ref=10 / deblock=1:-2:-2 / analyse=0x3:0x133 / me=umh / subme=10 / psy=1 / psy_rd=1.00:0.10 / mixed_ref=1 / me_range=32 / chroma_me=1 / trellis=2 / 8x8dct=1 / cqm=0 / deadzone=21,11 / fast_pskip=0 / chroma_qp_offset=-3 / threads=3 / sliced_threads=0 / nr=0 / decimate=1 / interlaced=0 / constrained_intra=0 / bframes=10 / b_pyramid=2 / b_adapt=1 / b_bias=0 / direct=3 / wpredb=1 / wpredp=2 / keyint=250 / keyint_min=25 / scenecut=40 / intra_refresh=0 / rc_lookahead=50 / rc=2pass / mbtree=1 / bitrate=2957 / ratetol=1.0 / qcomp=0.60 / qpmin=10 / qpmax=51 / qpstep=4 / cplxblur=20.0 / qblur=0.5 / ip_ratio=1.40 / aq=1:1.00
Язык: Russian

Аудио
Идентификатор: 2
Формат: AC-3
Формат/Информация: Audio Coding 3
Расширение режима: CM (complete main)
Режим смешивания: Header stripping
Идентификатор кодека: A_AC3
Продолжительность: 45 м.
Вид битрейта: Постоянный
Битрейт: 448 Кбит/сек
Канал(ы): 6 канала(ов)
Расположение каналов: Front: L C R, Side: L R, LFE
Частота: 48,0 КГц
Битовая глубина: 16 бит
Метод сжатия: С потерями
Размер потока: 147 Мбайт (13%)
Язык: Russian

Общее
Уникальный идентификатор: 217534832362114054103569383176591426791 (0xA3A7AF4C6371B101AF3A91AE8ECCC4E7)
Полное имя: D:\Для раздачи\Kotovskii_s8_[tfile.ru]\Серия_07_[tfile.ru].mkv
Формат: Matroska
Размер файла: 1,09 Гбайт
Продолжительность: 45 м.
Общий поток: 3405 Кбит/сек
Название фильма: Котовский - 07 серия
Дата кодирования: UTC 2011-03-03 18:55:29
Программа кодирования: mkvmerge v4.5.0 ('Speed of Light') сборка от Feb6 2011 12:51:39
Библиотека кодирования: libebml v1.2.0 + libmatroska v1.1.0

Видео
Идентификатор: 1
Формат: AVC
Формат/Информация: Advanced Video Codec
Профиль формата: High@L4.1
Параметр CABAC формата: Да
Параметр ReFrames формата: 10 кадры
Параметры GOP формата: M=11, N=21
Режим смешивания: Header stripping
Идентификатор кодека: V_MPEG4/ISO/AVC
Продолжительность: 45 м.
Битрейт: 2958 Кбит/сек
Ширина: 1024 пикс.
Высота: 576 пикс.
Соотношение сторон: 16:9
Частота кадров: 24,000 кадр/сек
Цветовое пространство: YUV
Подвыборка цветности: 4:2:0
Битовая глубина: 8 бит
Тип развёртки: Прогрессивная
Бит/(Пиксели*Кадры): 0.209
Размер потока: 948 Мбайт (85%)
Библиотека кодирования: x264 core 92 r1510 33d382a
Настройки программы: cabac=1 / ref=10 / deblock=1:-2:-2 / analyse=0x3:0x133 / me=umh / subme=10 / psy=1 / psy_rd=1.00:0.10 / mixed_ref=1 / me_range=32 / chroma_me=1 / trellis=2 / 8x8dct=1 / cqm=0 / deadzone=21,11 / fast_pskip=0 / chroma_qp_offset=-3 / threads=3 / sliced_threads=0 / nr=0 / decimate=1 / interlaced=0 / constrained_intra=0 / bframes=10 / b_pyramid=2 / b_adapt=1 / b_bias=0 / direct=3 / wpredb=1 / wpredp=2 / keyint=250 / keyint_min=25 / scenecut=40 / intra_refresh=0 / rc_lookahead=50 / rc=2pass / mbtree=1 / bitrate=2958 / ratetol=1.0 / qcomp=0.60 / qpmin=10 / qpmax=51 / qpstep=4 / cplxblur=20.0 / qblur=0.5 / ip_ratio=1.40 / aq=1:1.00
Язык: Russian

Аудио
Идентификатор: 2
Формат: AC-3
Формат/Информация: Audio Coding 3
Расширение режима: CM (complete main)
Режим смешивания: Header stripping
Идентификатор кодека: A_AC3
Продолжительность: 45 м.
Вид битрейта: Постоянный
Битрейт: 448 Кбит/сек
Канал(ы): 6 канала(ов)
Расположение каналов: Front: L C R, Side: L R, LFE
Частота: 48,0 КГц
Битовая глубина: 16 бит
Метод сжатия: С потерями
Размер потока: 147 Мбайт (13%)
Язык: Russian

Общее
Уникальный идентификатор: 238008834995581292201861425820428146317 (0xB30ED59067456C568E6F615533FC168D)
Полное имя: D:\Для раздачи\Kotovskii_s8_[tfile.ru]\Серия_08_[tfile.ru].mkv
Формат: Matroska
Размер файла: 1,09 Гбайт
Продолжительность: 45 м.
Общий поток: 3402 Кбит/сек
Название фильма: Котовский - 08 серия
Дата кодирования: UTC 2011-03-03 18:59:45
Программа кодирования: mkvmerge v4.5.0 ('Speed of Light') сборка от Feb6 2011 12:51:39
Библиотека кодирования: libebml v1.2.0 + libmatroska v1.1.0

Видео
Идентификатор: 1
Формат: AVC
Формат/Информация: Advanced Video Codec
Профиль формата: High@L4.1
Параметр CABAC формата: Да
Параметр ReFrames формата: 10 кадры
Параметры GOP формата: M=11, N=16
Режим смешивания: Header stripping
Идентификатор кодека: V_MPEG4/ISO/AVC
Продолжительность: 45 м.
Битрейт: 2952 Кбит/сек
Ширина: 1024 пикс.
Высота: 576 пикс.
Соотношение сторон: 16:9
Частота кадров: 24,000 кадр/сек
Цветовое пространство: YUV
Подвыборка цветности: 4:2:0
Битовая глубина: 8 бит
Тип развёртки: Прогрессивная
Бит/(Пиксели*Кадры): 0.209
Размер потока: 949 Мбайт (85%)
Библиотека кодирования: x264 core 92 r1510 33d382a
Настройки программы: cabac=1 / ref=10 / deblock=1:-2:-2 / analyse=0x3:0x133 / me=umh / subme=10 / psy=1 / psy_rd=1.00:0.10 / mixed_ref=1 / me_range=32 / chroma_me=1 / trellis=2 / 8x8dct=1 / cqm=0 / deadzone=21,11 / fast_pskip=0 / chroma_qp_offset=-3 / threads=3 / sliced_threads=0 / nr=0 / decimate=1 / interlaced=0 / constrained_intra=0 / bframes=10 / b_pyramid=2 / b_adapt=1 / b_bias=0 / direct=3 / wpredb=1 / wpredp=2 / keyint=250 / keyint_min=25 / scenecut=40 / intra_refresh=0 / rc_lookahead=50 / rc=2pass / mbtree=1 / bitrate=2952 / ratetol=1.0 / qcomp=0.60 / qpmin=10 / qpmax=51 / qpstep=4 / cplxblur=20.0 / qblur=0.5 / ip_ratio=1.40 / aq=1:1.00
Язык: Russian

Аудио
Идентификатор: 2
Формат: AC-3
Формат/Информация: Audio Coding 3
Расширение режима: CM (complete main)
Режим смешивания: Header stripping
Идентификатор кодека: A_AC3
Продолжительность: 45 м.
Вид битрейта: Постоянный
Битрейт: 448 Кбит/сек
Канал(ы): 6 канала(ов)
Расположение каналов: Front: L C R, Side: L R, LFE
Частота: 48,0 КГц
Битовая глубина: 16 бит
Метод сжатия: С потерями
Размер потока: 147 Мбайт (13%)
Язык: Russian








Поделиться:




реклама партнёра


Вернуться к началу
 Профиль Отправить личное сообщение  
 
   Похожие торренты   Автор   Торрент   Размер 
В этой теме нет новых непрочитанных сообщений. Я все помню [01-04 из 04] (Станислав Назиров) [Детектив, мелодрама, 2015] WEB-DL 1080p

Dracon

541 | 120

7.61 ГБ

В этой теме нет новых непрочитанных сообщений. Я все помню [01-04 из 04] (Станислав Назиров) [Детектив, мелодрама, 2015] WEB-DLRip

Dracon

2285 | 534

5.47 ГБ

В этой теме нет новых непрочитанных сообщений. Отмена всех ограничений [01-06 из 16] (Станислав Назиров) [2014, Мелодрама, SATRip]

Nickolas3435

28 | 4

3.23 ГБ

В этой теме нет новых непрочитанных сообщений. Теория невероятности [Серия 1-4 из 4] (Станислав Назиров) [Мелодрама, 2015] SATRip

Dracon

21 | 2

2.43 ГБ

В этой теме нет новых непрочитанных сообщений. Теория невероятности [01-02 из 02] (Станислав Назиров) [Мелодрама, 2015] HDTVRip 720p

Dracon

56 | 0

7.39 ГБ

В этой теме нет новых непрочитанных сообщений. Теория невероятности [01-02 из 02] (Станислав Назиров) [Мелодрама, 2015] HDTV 1080i

Dracon

45 | 4

6.83 ГБ

В этой теме нет новых непрочитанных сообщений. Семья маньяка Беляева [01-04 из 04] (Станислав Назиров) [Детектив, Мелодрама, 2015] SATRip

Dracon

790 | 86

2.15 ГБ


Начать новую тему Ответить на тему  [ 1 сообщение ] 




Для Мосгорсуда, Роскомнадзора и рекламодателей:: mosgorsud-torrent[собачка]yandex.ru