Торрент файл
скачать торрент магнет ссылка Добавлен: 17 дек 2011, 19:02
Размер: 8.67 ГБ
Сидеров: 34
Личеров: 11
Автор

СообщениеДобавлено: 17 дек 2011, 19:02 

Не в сети
Супермодератор
Аватара пользователя
Дата регистрации:
11 апр 2010, 18:10
Спасибо: 5799 / 7
Сообщения: 56779
Золотой капкан (16 серий из 16 )

Перевод: Не требуется, cубтитры: отсутствуют
Формат: DVDRip, AVI, DivX, AC3
Страна: Россия
Режиссер: Станислав Дремов
Жанр: боевик
Всего серий: 16
Продолжительность: 16 х 00:45
Год выпуска: 2010
В ролях: Евгений Дятлов, Александр Голубев, Вячеслав Разбегаев, Олег Морозов, Светлана Устинова, Юрий Цурило, Дмитрий Кочкин, Валентин Латарцев, Дмитрий Поднозов, Анатолий Хропов, Дарья Циберкина, Владимир Галась и др.
Описание: Случайные знакомые — бывший танкист Андрей Новиков и никогда не служивший в армии Юра Мартов — оказываются в поисках денег на золотом прииске, в мире, где главная и единственная ценность — желтый металл, а человек — лишь орудие его добычи. Правила устанавливает «золотая мафия», которая с помощью надсмотрщиков, прозванных «блатными», контролирует доходное «предприятие» в тайге. В конце каждого сезона от старателей, как он ненужных свидетелей, бесшумно избавляются, прибрав к рукам заработанную ими долю. Пытаясь остаться в стороне от тайной жизни прииска, Андрей и Юра очень скоро понимают, что им не избежать общей участи.

Рейтинг на:

Видео: 704х400 (1.76:1), 25 fps, DivX Codec 5.2.1 build 1328, ~1441 kbps, 0.21 bit/pixel
Аудио: 48 kHz, AC3 Dolby Digital, 2/0 (L,R) ch, 192.00 kbps avg

General
Complete name: F:\Zolotoy_kapkan_[tfile.ru]\Zolotoy_kapkan_01_[tfile.ru].avi
Format: AVI
Format/Info: Audio Video Interleave
File size: 555 MiB
Duration: 47mn 6s
Overall bit rate: 1 647 Kbps
Writing application: VirtualDubMod 1.5.10.2 (build 2540/release)
Writing library: VirtualDubMod build 2540/release

Video
ID: 0
Format: MPEG-4 Visual
Format settings, BVOP: No
Format settings, QPel: No
Format settings, GMC: No warppoints
Format settings, Matrix: Default (H.263)
Codec ID: DX50
Codec ID/Hint: DivX 5
Duration: 47mn 6s
Bit rate: 1 445 Kbps
Width: 704 pixels
Height: 400 pixels
Display aspect ratio: 16:9
Frame rate: 25.000 fps
Resolution: 8 bits
Colorimetry: 4:2:0
Scan type: Progressive
Bits/(Pixel*Frame): 0.205
Stream size: 487 MiB (88%)
Writing library: DivX 5.2.1 (WaffleDay) (UTC 2004-09-08 )

Audio
ID: 1
Format: AC-3
Format/Info: Audio Coding 3
Codec ID: 2000
Duration: 47mn 5s
Bit rate mode: Constant
Bit rate: 192 Kbps
Channel(s): 2 channels
Channel positions: L R
Sampling rate: 48.0 KHz
Stream size: 64.7 MiB (12%)
Alignment: Split accross interleaves
Interleave, duration: 40 ms (1.00 video frame)
Interleave, preload duration: 500 ms
















Поделиться:




реклама партнёра


Вернуться к началу
 Профиль Отправить личное сообщение  
 
   Похожие торренты   Автор   Торрент   Размер 
В этой теме нет новых непрочитанных сообщений. Добро пожаловать в капкан / Welcome to the Punch [Боевик, триллер, криминал, 2013] BDRip 720p, Dub [THT]

Dracon

1 | 2

4.87 ГБ

В этой теме нет новых непрочитанных сообщений. Добро пожаловать в капкан / Welcome to the Punch [Боевик, триллер, криминал, приключения, 2013] HDRip, dub [Чистый звук]

Dracon

979 | 13

1.36 ГБ

В этой теме нет новых непрочитанных сообщений. Проект Золотой глаз [01-04 из 04] [Боевик, приключения, 2014] SATRip

Dracon

183 | 10

2.29 ГБ

В этой теме нет новых непрочитанных сообщений. Золотой сфинкс / La sfinge d'oro [приключения, 1967] DVDRip, Dvo [ТВЦ]

salma3

357 | 71

1.46 ГБ

В этой теме нет новых непрочитанных сообщений. Капкан для Золушки [01-04 из 04] (Вячеслав Лавров) [Детектив, 2014] WEB-DL 1080p

Dracon

36 | 12

3.79 ГБ

В этой теме нет новых непрочитанных сообщений. Золотой Глобус: Бавария / Golden Globe: Bayern [2010, документальный, BDRip AVC]

Nickolas3435

39 | 2

2.76 ГБ

В этой теме нет новых непрочитанных сообщений. Капкан для Золушки [Серии 1-4 из 4] (Вячеслав Лавров) [Детектив, 2014] WEBRip

Dracon

0 | 2

2.15 ГБ


Начать новую тему Ответить на тему  [ 1 сообщение ] 




Для Мосгорсуда, Роскомнадзора и рекламодателей:: mosgorsud-torrent[собачка]yandex.ru