Торрент файл
скачать торрент магнет ссылка Добавлен: 17 дек 2011, 19:00
Размер: 8.53 ГБ
Сидеров: 16
Личеров: 8
Автор

СообщениеДобавлено: 17 дек 2011, 19:00 

Не в сети
Супермодератор
Аватара пользователя
Дата регистрации:
11 апр 2010, 18:10
Спасибо: 5802 / 7
Сообщения: 56779
Русский дубль (16 серий из 16 )

Перевод: Не требуется, cубтитры: отсутствуют
Формат: DVDRip, AVI, XviD, MP3
Страна: Россия
Режиссер: Сергей Щербин
Жанр: детектив
Всего серий: 16
Продолжительность: 00:48 х 16
Год выпуска: 2010
В ролях: Максим Дрозд, Андрей Зибров, Сергей Горобченко, Алексей Фокин, Алёна Шайтарова, Ян Цапник, Сергей Кудрявцев, Елена Радевич, Олег Чернов, Андрей Мокеев, Николай Добрынин, Андрей Шимко, Полина Булычева, Сергей Синцов, Константин Клюквин, Юрий Агейкин, Александр Маслов, Виктория Полторак, Андрей Пынзару, Михаил Сидаш, Дмитрий Быковский-Ромашов, Константин Фильченков, Ольга Медынич, Игорь Ключников, Георгий Маришин, Михаил Дорофеев, Сергей Красовский (II), Игорь Николаев (II), Павел Исайкин, Зиновий Волоцкий, Андрей Астраханцев, Геннадий Кузнецов (II), Станислав Соколов (II), Алексей Утеганов, Сергей Доронин, Сергей Казновский, Станислав Иванченко, Марат Мусин, Владимир Колесов, Михаил Богданов, Алексей Агопьян, Олег Трифонов, Витас Эйзенах, Алексей Байдаков, Андрей Лаврентьев (II), Андрей Благословенский, Игорь Лепихин, Дмитрий Аршанский, Николай Солодилов, Сергей Харитонов, Сергей Евдокимов, Дмитрий Рязанцев, Валентина Савчук, Вадим Романов, Антонина Чижикова, Владимир Шагин, Игорь Добряков, Дмитрий Володин, Виктор Терехов, Петр Гаврилюк, Дмитрий Блажко, Николай Сонин, Кирилл Маркин, Станислав Чернов, Илья Савельев, Елена Быстрова, Дмитрий Бульба, Владимир Сороколита, Руслан Барабанов, Евгений Гусев

Описание: Два друга детства, выросшие в одном дворе и ходившие в одну школу, взяли течение жизни в свои руки и организовали собственный бизнес - частное сыскное агентство. Андрей - в прошлом - инженер, работавший в "почтовом ящике", уволенный в период начала процесса конверсии. Максим - в прошлом - оперуполномоченный, ушедший из "органов" из-за конфликтов с начальством - слишком уж Максим оказался неподкупным и принципиальным правдолюбом.
Первое дело - заказчик просит найти пропавшего сотрудника своей фирмы - он ему нужен по делам бизнеса, а милиция не берет дело в разработку, так как с момента исчезновения прошло еще мало времени, всего два дня. Максим и Андрей начинают поиски и сталкиваются с ожидаемыми и неожиданными препятствиями - «частное» дело выводит друзей на значительно более серьезное преступление...


Рейтинг на:
Видео: 704x400 (1.76:1), 25 fps, XviD build 50, ~1432Kbps, 0.21 bit/pixel
Аудио: 48 kHz, MPEG Layer 3, 2 ch, ~128.00 kbps avg


Allgemein
Полное имя : F:\Russkiy_dubl_[tfile.ru]\Russkiy_dubl_01_[tfile.ru]
Формат : AVI
Формат/Информация : Audio Video Interleave
Размер файла : 546 MiB
Продолжительность : 48min
Общий поток : 1 570 Kbps
Программа кодирования : VirtualDubMod 1.5.10.3 | www.virtualdub-fr.org || (build 2550/release)
Библиотека кодирования : VirtualDubMod build 2550/release
Video
Идентификатор : 0
Формат : MPEG-4 Visual
Профайл формата : Advanced Simple@L5
Параметры BVOP формата : Ja
Параметры QPel формата : Nein
Параметры GMC формата : Keine warppoints
Параметры матрицы формата : Default (MPEG)
Идентификатор кодека : XVID
Идентификатор кодека/Подсказка : XviD
Продолжительность : 48min
Битрейт : 1 432 Kbps
Ширина : 704 Pixel
Высота : 400 Pixel
Соотношение кадра : 16:9
Частота кадров : 25,000 FPS
ColorSpace : YUV
ChromaSubsampling : 4:2:0
BitDepth/String : 8 bits
Тип развёртки : progressiv
Бит/(Пиксели*Кадры) : 0.203
Размер потока : 498 MiB (91%)
Библиотека кодирования : XviD 1.2.1 (UTC 2008-12-04)
Audio
Идентификатор : 1
Формат : MPEG Audio
Версия формата : Version 1
Профайл формата : Layer 3
Идентификатор кодека : 55
Идентификатор кодека/Подсказка : MP3
Продолжительность : 48min
Вид битрейта : konstant
Битрейт : 128 Kbps
Канал(ы) : 2 Kanäle
Частота : 48,0 KHz
Размер потока : 44,5 MiB (8%)
Выравнивание : Ausgerichtet an Interleaves
Продолжительность промежутка : 40 ms (1,00 Video-Frame)
Время предзагрузки промежутка : 504 ms
Библиотека кодирования : LAME3.98r
Настройки программы : -m s -V 4 -q 2 -lowpass 17 -b 128

















Поделиться:




реклама партнёра


Вернуться к началу
 Профиль Отправить личное сообщение  
 
   Похожие торренты   Автор   Торрент   Размер 
В этой теме нет новых непрочитанных сообщений. Трюкач [Серия 1-12 из 12] (Сергей Щербин) [драма, мелодрама, 2015] SATRip

Dracon

1883 | 417

7.01 ГБ

В этой теме нет новых непрочитанных сообщений. Коротков Сергей - Пленники Зоны. Сталкеры навсегда [2015 / Русский / FB2]

Dracon

7 | 4

1.4 МБ

В этой теме нет новых непрочитанных сообщений. Сергей Лукьяненко и др. - Серия "Пограничье" [5 книг] [2014-2015 / Русский / FB2]

Dracon

442 | 38

7.82 МБ

В этой теме нет новых непрочитанных сообщений. Книжная серия "Морской спецназ"(93 книги) / Сергей Зверев,Валерий Рощин,Анатоий Сарычев,Михаил Серегин,Иван Стрельцов [2004-2015 / Русский / FB2]

Dracon

4 | 2

81.36 МБ

В этой теме нет новых непрочитанных сообщений. Щенки из приюта № 17 / Pound Puppies / 1 сезон: 26 серий из 26 [мультфильм, комедия, семейный, 2010] DVDRip, Dub

salma3

7 | 5

7.69 ГБ

В этой теме нет новых непрочитанных сообщений. Щенки из приюта № 17 / Pound Puppies / 1 сезон: 26 серий из 26 [мультфильм, комедия, семейный, 2010] DVDRip-AVC, Dub

salma3

15 | 7

7.7 ГБ

В этой теме нет новых непрочитанных сообщений. VA-Русский фолк [1996-2010, Folk, MP3]

PriZraK

0 | 1

1.05 ГБ


Начать новую тему Ответить на тему  [ 1 сообщение ] 




Для Мосгорсуда, Роскомнадзора и рекламодателей:: mosgorsud-torrent[собачка]yandex.ru