Торрент файл
скачать торрент магнет ссылка Добавлен: 06 авг 2011, 23:31
Размер: 7.51 ГБ
Сидеров: 16
Личеров: 6
Автор

СообщениеДобавлено: 06 авг 2011, 23:31 

Не в сети
Аватара пользователя
Дата регистрации:
24 дек 2010, 18:42
Возраст: 24
Спасибо: 78 / 6
Сообщения: 299
Откуда: Астрахань
Сверхъестественное / Supernatural



Год выпуска: 2010
Страна: США
Жанр: мистика, ужасы, драма
Продолжительность: ~ 00:43:00
Перевод: Профессиональный (многоголосый, закадровый) NovaFilm
Режиссер: Роберт Сингер

В ролях:
Джаред Падалеки, Дженсен Эклс, Джим Бивер, Миша Коллинз, Джеффри Дин Морган, Женевьев Падалеки, Саманта Феррис, Курт Фуллер, Кэти Кэссиди, Лорен Коэн и др.

Описание:
Сериал рассказывает о приключениях братьев Сэма и Дина Винчестеров, которые путешествуют по Соединённым Штатам на чёрном автомобиле Chevrolet Impala 1967 года, расследуют паранормальные явления, многие из которых основаны на американских городских легендах и фольклоре, и сражаются с порождениями зла, такими как демоны и призраки.

Качество: WEB-DLRip
Формат: AVI
Видео кодек: DivX
Аудио кодек: MP3
Видео: 624*352 (1.77), 23.976 fps, DivX Codec 4.x, ~1012 kbps, 0.20 bit/pixel
Аудио: 48 kHz, MPEG Layer 3, 2 ch, ~128.00 kbps avg

Релиз:
Перевод: Александр Кошелев
Озвучка: Студия «Новамедиа»

Сэмпл | IMDb | КиноПоиск


  • Exile on Main Street / Семейные Узы
  • Two and a Half Men / Два с Половиной Человека
  • The Third Man / Третий Человек
  • Weekend at Bobby's / Уикенд у Бобби
  • Live Free or Twihard / Крепкий Орешек Сумерек
  • You Can't Handle the Truth / Невыносимая Правда
  • Family Matters / Дела Семейные
  • All Dogs Go To Heaven / Все Собаки Попадают в Рай
  • Clap Your Hands If You Believe / Если Верите, Хлопайте в Ладоши!
  • Caged Heat / Ад за Решеткой
  • Appointment in Samarra / Свидание в Самарре
  • Like a Virgin / Невинность
  • Unforgiven / Непрощенный
  • Mannequin 3: The Reckoning / Манекен 3: Расплата
  • The French Mistake / Французская Оплошность
  • ...And Then There Were Non / ...И Никого Не Стало
  • My Heart Will Go On / Моё Сердце Биться Не Перестанет
  • Frontierland / Приграничная Страна
  • Mommy Dearest / Любимая Мамочка
  • The Man Who Would Be King / Тот, Кто Хотел Стать Королём
  • Let It Bleed / Да Прольётся Кровь
  • The Man Who Knew Too Much / Тот, Кто Слишком Много Знал


Код:
Video
ID: 0
Format: MPEG-4 Visual
Format settings, BVOP: Yes
Format settings, QPel: No
Format settings, GMC: No warppoints
Format settings, Matrix: Default (H.263)
Muxing mode: Packed bitstream
Codec ID: DX50
Codec ID/Hint: DivX 5
Duration: 42mn 32s
Bit rate: 1 012 Kbps
Width: 624 pixels
Height: 352 pixels
Display aspect ratio: 16:9
Frame rate: 23.976 fps
Resolution: 8 bits
Colorimetry: 4:2:0
Scan type: Progressive
Bits/(Pixel*Frame): 0.192
Stream size: 308 MiB (88%)
Writing library: DivX 6.8.3-6.8.4 (UTC 2008-06-07)
Audio
ID: 1
Format: MPEG Audio
Format version: Version 1
Format profile: Layer 3
Format_Settings_Mode: Joint stereo
Codec ID: 55
Codec ID/Hint: MP3
Duration: 42mn 32s
Bit rate mode: Constant
Bit rate: 128 Kbps
Channel(s): 2 channels
Sampling rate: 48.0 KHz
Stream size: 38.9 MiB (11%)
Alignment: Aligned on interleaves
Interleave, duration: 42 ms (1.00 video frame)
Interleave, preload duration: 504 ms


_________________
Понравился релиз? Не забудь сказать спасибо!
Фан-сайт сериала "Спартак" / Форум фан-сайта сериала "Спартак"
ICQ: 8758899
E-Mail: ygo.admin@gmail.com
О нас думают плохо лишь те, кто хуже нас, а те кто лучше нас... Им просто не до нас © Омар Хайям



реклама партнёра


Вернуться к началу
 Профиль Отправить личное сообщение  
 
   Похожие торренты   Автор   Торрент   Размер 
В этой теме нет новых непрочитанных сообщений. Сверхъестественное / Supernatural [11х01-17] (Роберт Сингер, Дж. Миллер Тобин, Джеймс Л. Конуэй) [2015, Фантастика, мистика, ужасы, триллер, драма, WEB-DL 1080р | NovaFilm]

Nickolas3435

50 | 256

28.95 ГБ

В этой теме нет новых непрочитанных сообщений. Сверхъестественное / Supernatural [11х01-07] (Роберт Сингер, Дж. Миллер Тобин, Джеймс Л. Конуэй) [2015, Фантастика, мистика, ужасы, триллер, драма, WEB-DL 1080р | NovaFilm]

Dracon

41 | 146

11.85 ГБ

В этой теме нет новых непрочитанных сообщений. Сверхъестественное / Supernatural [11х01-17] (Роберт Сингер, Дж. Миллер Тобин, Джеймс Л. Конуэй) [2015, Фантастика, мистика, ужасы, триллер, драма, WEB-DL 720р | NovaFilm]

Dracon

54 | 233

24.03 ГБ

В этой теме нет новых непрочитанных сообщений. Сверхъестественное / Supernatural / 11 сезон 1-23 серии из 23 (Филип Сгриккиа, Роберт Сингер, Ким Мэннерс) [2015, Ужасы, фэнтези, триллер, драма, детектив, WEB-DLRip | LostFilm]

Dracon

575 | 239

8.79 ГБ

В этой теме нет новых непрочитанных сообщений. Сверхъестественное / Supernatural (Сезон 11, Серия 1-15 из 23) ( Филип Сгриккиа, Роберт Сингер) 2015-2016 , Драма/Фэнтези/Ужасы/Детектив/Триллер , WEBDLRip 1080р] [MVO] [NewStudio & NovaFilm , LostFilm , BaibaKo , Jaskier] + [Subs Rus,EN

Враг Нароода

В этой теме нет новых непрочитанных сообщений. Сверхъестественное / Supernatural (Сезон 11, Серия 1-18 из 23) ( Филип Сгриккиа, Роберт Сингер) 2015-2016 , Драма/Фэнтези/Ужасы/Детектив/Триллер , WEBDLRip 1080р] [MVO] [NewStudio & NovaFilm , LostFilm , BaibaKo , Jaskier, Englis] + [Sub

Враг Нароода

0 | 1

37.03 ГБ

В этой теме нет новых непрочитанных сообщений. Сверхъестественное / Supernatural (Сезон 11, Серия 1-13 из 23) ( Филип Сгриккиа, Роберт Сингер) 2015-2016 , Драма/Фэнтези/Ужасы/Детектив/Триллер , WEBDLRip 1080р] [MVO] [NewStudio & NovaFilm , LostFilm , BaibaKo , Jaskier] + [Subs Rus,EN

Враг Нароода

0 | 0

26.92 ГБ


Начать новую тему Ответить на тему  [ 1 сообщение ] 




Для Мосгорсуда, Роскомнадзора и рекламодателей:: mosgorsud-torrent[собачка]yandex.ru