Торрент файл
скачать торрент магнет ссылка Добавлен: 06 авг 2011, 23:21
Размер: 12.34 ГБ
Сидеров: 75
Личеров: 46
Автор

СообщениеДобавлено: 06 авг 2011, 23:21 

Не в сети
Аватара пользователя
Дата регистрации:
24 дек 2010, 18:42
Возраст: 25
Спасибо: 80 / 6
Сообщения: 299
Откуда: Астрахань
Сверхъестественное / Supernatural


Год выпуска: 2009-2010
Страна: США
Жанр: мистика, ужасы, драма
Продолжительность: 00:42:25
Режиссер: Роберт Сингер
Перевод: полное дублирование (Рен-ТВ) + Профессиональный многоголосый закадровый Студия "Кравец"
Русские субтитры: есть
Субтитры: Русские + Перевод песен (*.srt)

В ролях: Джаред Падалеки, Дженсен Эклз, Джим Бивер, Миша Коллинз, Женевьев Падалеки, Саманта Феррис, Курт Фуллер и др.

Описание: Апокалипсис наступил. Люцифер вырвался на свободу. Смогут ли братья Винчестеры очередной раз спасти весь мир?

IMDB | Сэмпл

Качество: HDRip (источник: BDRip 720p)
Формат: AVI
Видео кодек: XviD
Аудио кодек: MP3
Видео: Видео: 720x400 (1.80:1), 23.976 fps, XviD MPEG-4 ~1363 kbps avg, 0.20 bit/pixel
Аудио: 48 kHz, MPEG Layer 3, 2 ch, 192 kbps avg. [Дубляж Рен-ТВ]
Аудио 2: 48 kHz, MPEG Layer 3, 2 ch, 192 kbps avg. [Студия "Кравец"]
Аудио 3: 48 kHz, MPEG Layer 3, 2 ch, 192 kbps avg. [Оригинал]

Код:
Общее
Полное имя : F:\торрент\Supernatural s5\Supernatural.s05.Ren-TV\Supernatural.s05e01.rus.eng.Ren-TV.LostFilm.TV.avi
Формат : AVI
Формат/Информация : Audio Video Interleave
Размер файла : 595 Мбайт
Продолжительность : 42 м.
Общий поток : 1960 Кбит/сек
Программа кодирования : VirtualDubMod 1.5.10.1 (build 2366/release)
Библиотека кодирования : VirtualDubMod build 2366/release
Видео
Идентификатор : 0
Формат : MPEG-4 Visual
Профиль формата : Simple@L3
Параметр BVOP формата : Нет
Параметр QPel формата : Нет
Параметр GMC формата : Без точки перехода
Параметр матрицы формата : Default (H.263)
Идентификатор кодека : XVID
Идентификатор кодека/Подсказка : XviD
Продолжительность : 42 м.
Битрейт : 1365 Кбит/сек
Ширина : 720 пикс.
Высота : 400 пикс.
Соотношение сторон : 16:9
Частота кадров : 23,976 кадр/сек
Цветовое пространство : YUV
Подвыборка цветности : 4:2:0
Битовая глубина : 8 бит
Тип развёртки : Прогрессивная
Метод сжатия : С потерями
Бит/(Пиксели*Кадры) : 0.198
Размер потока : 414 Мбайт (70%)
Библиотека кодирования : XviD 1.2.1 (UTC 2008-12-04)
Аудио #1
Идентификатор : 1
Формат : MPEG Audio
Версия формата : Version 1
Профиль формата : Layer 3
Режим : Joint stereo
Идентификатор кодека : 55
Идентификатор кодека/Подсказка : MP3
Продолжительность : 42 м.
Вид битрейта : Постоянный
Битрейт : 192 Кбит/сек
Канал(ы) : 2 канала(ов)
Частота : 48,0 КГц
Метод сжатия : С потерями
Размер потока : 58,3 Мбайт (10%)
Выравнивание : Соединение по промежуткам
Продолжительность промежутка : 42 мс. (1,00 видеокадр)
Время предзагрузки промежутка : 504 ms
Аудио #2
Идентификатор : 2
Формат : MPEG Audio
Версия формата : Version 1
Профиль формата : Layer 3
Режим : Joint stereo
Идентификатор кодека : 55
Идентификатор кодека/Подсказка : MP3
Продолжительность : 42 м.
Вид битрейта : Постоянный
Битрейт : 192 Кбит/сек
Канал(ы) : 2 канала(ов)
Частота : 48,0 КГц
Метод сжатия : С потерями
Размер потока : 58,3 Мбайт (10%)
Выравнивание : Соединение по промежуткам
Продолжительность промежутка : 42 мс. (1,00 видеокадр)
Время предзагрузки промежутка : 504 ms
Аудио #3
Идентификатор : 3
Формат : MPEG Audio
Версия формата : Version 1
Профиль формата : Layer 3
Режим : Joint stereo
Расширение режима : MS Stereo
Идентификатор кодека : 55
Идентификатор кодека/Подсказка : MP3
Продолжительность : 42 м.
Вид битрейта : Постоянный
Битрейт : 192 Кбит/сек
Канал(ы) : 2 канала(ов)
Частота : 48,0 КГц
Метод сжатия : С потерями
Размер потока : 58,3 Мбайт (10%)
Выравнивание : Соединение по промежуткам
Продолжительность промежутка : 42 мс. (1,00 видеокадр)
Время предзагрузки промежутка : 504 ms

1. Сочувствие дьяволу (Sympathy for the Devil)
2. Господи Боже, и вы тоже! (Good God, Y'All)
3. Свобода быть самим собой (Free to Be You and Me)
4. Конец (The End)
5. Падшие кумиры (Fallen Idol)
6. Я верю - дети наше будущее (I Believe the Children Are Our Future)
7. Загадочная история Дина Винчестера (The Curious Case of Dean Winchester)
8. Переключая каналы (Changing Channels)
9. Настоящие охотники за привидениями (The Real Ghostbusters).
10. Оставь все надежды (Abandon All Hope)
11. Прерванная жизнь, Сэм (Sam, Interrupted)
12. Обмен телами(Swap Meat)
13. Песня остается прежней (The Song Remains the Same)
14. Мой кровавый Валентин (My Bloody Valentine)
15. А зомби здесь тихие (Dead Men Don`t Wear Plaid)
16. Обратная сторона луны (Dark Side of the Moon)
17. 99 проблем (99 problems).
18. Обратной дороги нет (Point of No Return)
19. Молот богов (Hammer of the Gods)
20. Знакомый вам дьявол (The Devil You Know).
21. Две минуты до полуночи (Two Minutes to Midnight).
22. Лебединая песня (Swan Song).



Заметки с разъяснениями понятий, терминов, выражений и т.п., упоминавшихся в серии.


_________________
Понравился релиз? Не забудь сказать спасибо!
Фан-сайт сериала "Спартак" / Форум фан-сайта сериала "Спартак"
ICQ: 8758899
E-Mail: ygo.admin@gmail.com
О нас думают плохо лишь те, кто хуже нас, а те кто лучше нас... Им просто не до нас © Омар Хайям



реклама партнёра


Вернуться к началу
 Профиль Отправить личное сообщение  
 
   Похожие торренты   Автор   Торрент   Размер 
В этой теме нет новых непрочитанных сообщений. Сверхъестественное / Supernatural [S01-10] (Эрик Крипке, Филип Сгриккиа, Роберт Сингер,Сара Гэмбл) [ужасы, фэнтези, триллер, 2005-2015] HDRip, DVDRip, WEB-DLRip, Dub+Mvo [BaibaKo]

Dracon

69 | 197

99.71 ГБ

В этой теме нет новых непрочитанных сообщений. Сверхъестественное / Supernatural / 10 сезон 1-23 серии из 23 [ужасы, фэнтези, триллер, драма, детектив, 2014-2015] WEB-DLRip, Mvo [LostFilm]

salma3

1797 | 1630

8.88 ГБ

В этой теме нет новых непрочитанных сообщений. Сверхъестественное / Supernatural / 12 сезон 1-23 серии из 23 [ужасы, фэнтези, триллер, 2016] WEB-DLRip, Mvo [LostFilm]

salma3

967 | 1753

11.24 ГБ

В этой теме нет новых непрочитанных сообщений. Сверхъестественное / Supernatural / 12 сезон 1-23 серии из 23 [ужасы, фэнтези, триллер, 2016] WEB-DLRip 1080p, Mvo [LostFilm]

salma3

81 | 485

40.14 ГБ

В этой теме нет новых непрочитанных сообщений. Сверхъестественное / Supernatural / 11 сезон 1-23 серии из 23 (Филип Сгриккиа, Роберт Сингер, Ким Мэннерс) [2015, Ужасы, фэнтези, триллер, драма, детектив, WEB-DLRip | LostFilm]

Dracon

597 | 235

8.79 ГБ

В этой теме нет новых непрочитанных сообщений. Сверхъестественное / Supernatural [S01-12] [Ужасы, фэнтези, триллер, драма, 2005-2017] WEB-DLRip, Dub+Mvo [Рен-ТВ / LostFilm]

salma3

13 | 130

112.9 ГБ

В этой теме нет новых непрочитанных сообщений. Сверхъестественное / Supernatural (Сезон 11, Серия 1-13 из 23) ( Филип Сгриккиа, Роберт Сингер) 2015-2016 , Драма/Фэнтези/Ужасы/Детектив/Триллер , WEBDLRip 1080р] [MVO] [NewStudio & NovaFilm , LostFilm , BaibaKo , Jaskier] + [Subs Rus,EN

Враг Нароода

0 | 1

26.92 ГБ


Начать новую тему Ответить на тему  [ 1 сообщение ] 




Для Мосгорсуда, Роскомнадзора и рекламодателей:: mosgorsud-torrent[собачка]yandex.ru