Оценка торрента
4 0%  0%  [ 0 ]
2 0%  0%  [ 0 ]
1 0%  0%  [ 0 ]
2 0%  0%  [ 0 ]
1 0%  0%  [ 0 ]
4 0%  0%  [ 0 ]
2 0%  0%  [ 0 ]
1 0%  0%  [ 0 ]
2 0%  0%  [ 0 ]
1 0%  0%  [ 0 ]
Всего голосов : 0
Торрент файл
скачать торрент магнет ссылка Добавлен: 06 авг 2011, 22:46
Размер: 16.29 ГБ
Сидеров: 47
Личеров: 19
Автор

СообщениеДобавлено: 06 авг 2011, 22:46 

Не в сети
Аватара пользователя
Дата регистрации:
24 дек 2010, 18:42
Возраст: 24
Спасибо: 78 / 6
Сообщения: 299
Откуда: Астрахань
Сверхъестественное / Supernatural

«Scary Just Got Sexy»



Год выпуска: 2006-2007
Страна: США
Жанр: мистика, триллер, ужасы
Продолжительность: ~ 00:44:00
Перевод: Профессиональный (полное дублирование) /Рен-ТВ/
Субтитры: Русские / Английские (*.srt)
Режиссер: Эрик Крипке

В ролях:
Джаред Падалеки, Дженсен Эклс, Джим Бивер, Миша Коллинз, Джеффри Дин Морган, Женевьев Падалеки, Саманта Феррис, Курт Фуллер, Кэти Кэссиди, Лорен Коэн и др.

Описание:
Два брата Дин и Сэм Винчестеры путешествуют по стране в поисках своего пропавшего отца, встречая на своём пути разную нечисть и сражаясь с ней. Когда братья были совсем маленькими, их мать погибла при ужасных и необъяснимых обстоятельствах. С тех пор отец Дина и Сэма посвящаяет себя поискам той нечисти по вине которой погибла его любимая жена. Сыновья становятся ему помощниками. Повзрослев Сэм решает отдалиться от постоянной борьбы со сверъестественным и начать нормальную жизнь, поступить в университет. Но в его жизнь врывается брат Дин, который сообщает, что отец пропал и от него нет вестей уже несколько дней. Сэм решает согласиться на небольшое путешествие, но только на пару дней. Вот только пар дней для этого дела окажется мало... Им не суждено жить нормальной жизнью. Их жизнь это борьба с нечистой силой. Они должны отыскать своего отца и узнать тайну гибели их матери.

Качество: HDRip (источник: BDRip 720p / uxTuaHgp)
Формат: AVI
Видео кодек: XviD
Аудио кодек: AC3
Видео: 720*400 (1.80), 23.976 fps, XviD MPEG-4, ~1930 kbps, 0.27 bit/pixel
Аудио #1: 48 kHz, AC3 Dolby Digital, 2.0 ch, 192 kbps avg / Дубляж Рен-ТВ /
Аудио #2: 48 kHz, AC3 Dolby Digital, 5.1 ch, 384 kbps avg / Оригинал /

IMDb | КиноПоиск


- 28.09.2006 01 - In My Time of Dying
- 05.10.2006 02 - Everybody Loves A Clown
- 12.10.2006 03 - Bloodlust
- 19.10.2006 04 - Children Shouldn't Play With Dead Things
- 26.10.2006 05 - Simon Said
- 02.11.2006 06 - No Exit
- 09.11.2006 07 - The Usual Suspects
- 16.11.2006 08 - Crossroad Blues
- 07.12.2006 09 - Croatoan
- 11.01.2007 10 - Hunted
- 18.01.2007 11 - Playthings
- 25.01.2007 12 - Nightshifter
- 01.02.2007 13 - Houses of the Holy
- 08.02.2007 14 - Born Under A Bad Sign
- 15.02.2007 15 - Tall Tales
- 15.03.2007 16 - Roadkill
- 22.03.2007 17 - Heart
- 19.04.2007 18 - Hollywood Babylon
- 26.04.2007 19 - Folsom Prison Blues
- 03.05.2007 20 - What Is and What Should Never Be
- 10.05.2007 21 - All Hell Breaks Loose (1)
- 17.05.2007 22 - All Hell Breaks Loose (2)

Код:
General
Complete name: E:\Supernatural - Season 2 (RenTV)\Supernatural.S02E01.HDRip.rus.[RenTV].eng.avi
Format: AVI
Format/Info: Audio Video Interleave
File size: 760 MiB
Duration: 42mn 10s
Overall bit rate: 2 518 Kbps
Writing application: VirtualDubMod 1.5.10.2 (build 2540/release)
Writing library: VirtualDubMod build 2540/release
Video
ID: 0
Format: MPEG-4 Visual
Format profile: Advanced Simple@L5
Format settings, BVOP: Yes
Format settings, QPel: No
Format settings, GMC: No warppoints
Format settings, Matrix: Default (MPEG)
Muxing mode: Packed bitstream
Codec ID: XVID
Codec ID/Hint: XviD
Duration: 42mn 10s
Bit rate: 1 928 Kbps
Width: 720 pixels
Height: 400 pixels
Display aspect ratio: 16:9
Frame rate: 23.976 fps
Resolution: 8 bits
Colorimetry: 4:2:0
Scan type: Progressive
Bits/(Pixel*Frame): 0.279
Stream size: 582 MiB (77%)
Writing library: XviD 1.2.1 (UTC 2008-12-04)
Audio #1
ID: 1
Format: AC-3
Format/Info: Audio Coding 3
Codec ID: 2000
Duration: 42mn 10s
Bit rate mode: Constant
Bit rate: 192 Kbps
Channel(s): 2 channels
Channel positions: L R
Sampling rate: 48.0 KHz
Stream size: 57.9 MiB (8%)
Alignment: Split accross interleaves
Interleave, duration: 42 ms (1.00 video frame)
Interleave, preload duration: 500 ms
Audio #2
ID: 2
Format: AC-3
Format/Info: Audio Coding 3
Codec ID: 2000
Duration: 42mn 10s
Bit rate mode: Constant
Bit rate: 384 Kbps
Channel(s): 6 channels
Channel positions: Front: L C R, Surround: L R, LFE
Sampling rate: 48.0 KHz
Stream size: 116 MiB (15%)
Alignment: Split accross interleaves
Interleave, duration: 42 ms (1.00 video frame)
Interleave, preload duration: 500 ms


_________________
Понравился релиз? Не забудь сказать спасибо!
Фан-сайт сериала "Спартак" / Форум фан-сайта сериала "Спартак"
ICQ: 8758899
E-Mail: ygo.admin@gmail.com
О нас думают плохо лишь те, кто хуже нас, а те кто лучше нас... Им просто не до нас © Омар Хайям



реклама партнёра


Вернуться к началу
 Профиль Отправить личное сообщение  
 
   Похожие торренты   Автор   Торрент   Размер 
В этой теме нет новых непрочитанных сообщений. Сверхъестественное / Supernatural [S01-10] (Эрик Крипке, Филип Сгриккиа, Роберт Сингер,Сара Гэмбл) [ужасы, фэнтези, триллер, 2005-2015] HDRip, DVDRip, WEB-DLRip, Dub+Mvo [BaibaKo]

Dracon

69 | 197

99.71 ГБ

В этой теме нет новых непрочитанных сообщений. Сверхъестественное / Supernatural / 10 сезон 1-23 серии из 23 [ужасы, фэнтези, триллер, 2014] WEB-DLRip, Mvo [BaibaKo]

salma3

55 | 74

13.29 ГБ

В этой теме нет новых непрочитанных сообщений. Сверхъестественное / Supernatural / 12 сезон 1-07 серии из 24 [ужасы, фэнтези, триллер, 2016] WEB-DLRip, Mvo [LostFilm]

salma3

437 | 1461

3.42 ГБ

В этой теме нет новых непрочитанных сообщений. Сверхъестественное / Supernatural / 10 сезон 1-23 серии из 23 [ужасы, фэнтези, триллер, драма, детектив, 2014-2015] WEB-DLRip, Mvo [LostFilm]

salma3

1797 | 1630

8.88 ГБ

В этой теме нет новых непрочитанных сообщений. Сверхъестественное / Supernatural / 11 сезон 1-23 серии из 23 (Филип Сгриккиа, Роберт Сингер, Ким Мэннерс) [2015, Ужасы, фэнтези, триллер, драма, детектив, WEB-DLRip | LostFilm]

Dracon

317 | 164

8.79 ГБ

В этой теме нет новых непрочитанных сообщений. Сверхъестественное / Supernatural [10х01-02] [2014, Фантастика, мистика, ужасы, триллер, драма, HDTV 720p | Kerob]

Nickolas3435

401 | 368

1.8 ГБ

В этой теме нет новых непрочитанных сообщений. Сверхъестественное / Supernatural [11х01-10] [2015, Фантастика, мистика, ужасы, триллер, драма, HDTV 720p |Jaskier]

gulvalpal

2 | 2

7.35 ГБ


Начать новую тему Ответить на тему  [ 1 сообщение ] 




Для Мосгорсуда, Роскомнадзора и рекламодателей:: mosgorsud-torrent[собачка]yandex.ru