Оценка торрента
5 0%  0%  [ 0 ]
4 0%  0%  [ 0 ]
3 0%  0%  [ 0 ]
2 0%  0%  [ 0 ]
1 0%  0%  [ 0 ]
5 0%  0%  [ 0 ]
4 0%  0%  [ 0 ]
3 0%  0%  [ 0 ]
2 0%  0%  [ 0 ]
1 0%  0%  [ 0 ]
Всего голосов : 0
Торрент файл
скачать торрент магнет ссылка Добавлен: 06 авг 2011, 22:39
Размер: 13.06 ГБ
Сидеров: 7
Личеров: 5
Автор

СообщениеДобавлено: 06 авг 2011, 22:39 

Не в сети
Аватара пользователя
Дата регистрации:
24 дек 2010, 18:42
Возраст: 24
Спасибо: 78 / 6
Сообщения: 299
Откуда: Астрахань
Сверхъестественное / Supernatural
Год выпуска: 2005
Страна: США | Warner Bros. Television
Жанр: мистика, триллер, ужасы
Продолжительность: ~00:44:00
Перевод: полное дублирование- Ren-Tv
Русские субтитры: нет
Субтитры: отсутствуют

Режиссёр: Eric Kripke / Эрик Крипке

В ролях: Джаред Падалеки, Дженсен Эклз, Джим Бивер, Миша Коллинз, Женевьев Падалеки, Саманта Феррис, Курт Фуллер и др.

Описание: Сериал рассказывает о приключениях братьев Сэма и Дина Винчестеров, которые путешествуют по Соединённым Штатам на чёрном автомобиле Chevrolet Impala 1967 года, расследуют паранормальные явления, многие из которых основаны на американских городских легендах и фольклоре, и сражаются с порождениями зла, такими как демоны и призраки.

Доп. информация: Размер= 3 DVD5 (2 DVD по 7 серий + 1 DVD 8 серий)

Сэмпл: http://multi-up.com/503967
Качество: HDRip
Формат: AVI
Видео кодек: XviD
Аудиокодек: AC3
Видео: 720x400 (1.80:1), 23.976 fps, XviD build 50 ~1884 kbps avg, 0.27 bit/pixel
Аудио: 48 kHz, AC3 Dolby Digital, 2/0 (L,R) ch, 192 kbps
MI
Format : AVI
Format/Info : Audio Video Interleave
File size : 637 MiB
Duration : 42mn 41s
Overall bit rate : 2 086 Kbps
Writing application : VirtualDubMod 1.5.10.3 | http://www.virtualdub-fr.org || (build 2550/release)
Writing library : VirtualDubMod build 2550/release
Video
ID : 0
Format : MPEG-4 Visual
Format profile : Advanced Simple@L5
Format settings, BVOP : 1
Format settings, QPel : No
Format settings, GMC : No warppoints
Format settings, Matrix : Default (MPEG)
Codec ID : XVID
Codec ID/Hint : XviD
Duration : 42mn 41s
Bit rate : 1 885 Kbps
Width : 720 pixels
Height : 400 pixels
Display aspect ratio : 16:9
Frame rate : 23.976 fps
Color space : YUV
Chroma subsampling : 4:2:0
Bit depth : 8 bits
Scan type : Progressive
Compression mode : Lossy
Bits/(Pixel*Frame) : 0.273
Stream size : 576 MiB (90%)
Writing library : XviD 1.2.1 (UTC 2008-12-04)
Audio
ID : 1
Format : AC-3
Format/Info : Audio Coding 3
Mode extension : CM (complete main)
Codec ID : 2000
Duration : 42mn 41s
Bit rate mode : Constant
Bit rate : 192 Kbps
Channel(s) : 2 channels
Channel positions : Front: L R
Sampling rate : 48.0 KHz
Bit depth : 16 bits
Compression mode : Lossy
Stream size : 58.6 MiB (9%)
Alignment : Split accross interleaves
Interleave, duration : 42 ms (1.00 video frame)
Interleave, preload duration : 500 ms
Скриншоты
Сравнение с http://rutracker.org/forum/viewtopic.php?t=2664408 http://screenshotcomparison.com/comparison.php?id=54672


_________________
Понравился релиз? Не забудь сказать спасибо!
Фан-сайт сериала "Спартак" / Форум фан-сайта сериала "Спартак"
ICQ: 8758899
E-Mail: ygo.admin@gmail.com
О нас думают плохо лишь те, кто хуже нас, а те кто лучше нас... Им просто не до нас © Омар Хайям



реклама партнёра


Вернуться к началу
 Профиль Отправить личное сообщение  
 
   Похожие торренты   Автор   Торрент   Размер 
В этой теме нет новых непрочитанных сообщений. Сверхъестественное / Supernatural [S01-10] (Эрик Крипке, Филип Сгриккиа, Роберт Сингер,Сара Гэмбл) [ужасы, фэнтези, триллер, 2005-2015] HDRip, DVDRip, WEB-DLRip, Dub+Mvo [BaibaKo]

Dracon

69 | 197

99.71 ГБ

В этой теме нет новых непрочитанных сообщений. Сверхъестественное / Supernatural / 12 сезон 1-07 серии из 24 [ужасы, фэнтези, триллер, 2016] WEB-DLRip, Mvo [LostFilm]

salma3

437 | 1461

3.42 ГБ

В этой теме нет новых непрочитанных сообщений. Сверхъестественное / Supernatural / 10 сезон 1-23 серии из 23 [ужасы, фэнтези, триллер, 2014] WEB-DLRip, Mvo [BaibaKo]

salma3

55 | 74

13.29 ГБ

В этой теме нет новых непрочитанных сообщений. Сверхъестественное / Supernatural / 10 сезон 1-23 серии из 23 [ужасы, фэнтези, триллер, драма, детектив, 2014-2015] WEB-DLRip, Mvo [LostFilm]

salma3

1797 | 1630

8.88 ГБ

В этой теме нет новых непрочитанных сообщений. Сверхъестественное / Supernatural / 11 сезон 1-23 серии из 23 (Филип Сгриккиа, Роберт Сингер, Ким Мэннерс) [2015, Ужасы, фэнтези, триллер, драма, детектив, WEB-DLRip | LostFilm]

Dracon

317 | 164

8.79 ГБ

В этой теме нет новых непрочитанных сообщений. Сверхъестественное / Supernatural [11х01-10] [2015, Фантастика, мистика, ужасы, триллер, драма, HDTV 720p |Jaskier]

gulvalpal

2 | 2

7.35 ГБ

В этой теме нет новых непрочитанных сообщений. Сверхъестественное / Supernatural [10х01-02] [2014, Фантастика, мистика, ужасы, триллер, драма, HDTV 720p | Kerob]

Nickolas3435

401 | 368

1.8 ГБ


Начать новую тему Ответить на тему  [ 1 сообщение ] 




Для Мосгорсуда, Роскомнадзора и рекламодателей:: mosgorsud-torrent[собачка]yandex.ru