Торрент файл
скачать торрент магнет ссылка Добавлен: 07 янв 2013, 20:14
Размер: 51.11 ГБ
Сидеров: 23
Личеров: 29
Автор

СообщениеДобавлено: 20 июл 2011, 19:10 

Не в сети
2 Звезды
Аватара пользователя
Дата регистрации:
10 окт 2010, 20:23
Возраст: 61
Спасибо: 179 / 0
Сообщения: 323
Откуда: КРАСНОГОРСК


Воздействие/Грабь награбленное / Leverage



Год выпуска: 2008-2012
Выпущено: США
Жанр: Боевик, детектив, драма, экшн
Количество сезонов: 1- 5
Серии: 1-77
Количество серий в сезоне:77
Продолжительность эпизода:00:44:00
Статус: Закончен
Озвучка:Cезон 1-2:Профессиональный двухголосый (LostFilm.TV, студия "Kravec"),Сезоон 3-5:Профессиональный многоголосый (LostFilm, студия "Kravec")

Субтитры: НЕТ

Официальный сайт





Режиссер: Дин Девлин, Марк Роскин, Джонатан Фрейкс, и др.

В ролях: Хаттон, Джина Беллман, Кристиан Кэйн, Бэт Рисграф, Элдис Ходж, Джери Райан, Марк Шеппард, Кэри Матчетт, Рик Овертон, Джералд Дауни и др.

Описание: О сериале "Воздействие"
Нейт Форд, бывший следователь страховой компании, возглавляет команду, в которую входят: компьютерный мошенник Хардисон, воровка и вообще безбашенная особа Паркер, актриса и мошенница Софи и специалист широкого профиля Эллиот. Эта команда помогает людям, пострадавшим от рук сильных мира сего, а попросту — воров.


Сезоны: 1-4
Качество: WEB-DLRip 720p
Формат: MPEG-4
Видео кодек: H264
Видео: 1593Кбит/сек,1280х720(16.9),в 29.970кадр/сек,AVC(Baseline@L1.3)(1Ref Frames)
Аудио кодек: AAC
Аудио Russian Dolby Digital 5.1:240-320Кбит/сек,44.1КГц,6каналов,AAC,(Version4)(LC)
Сезон: 5
Качество: WEB-DLRip-AVC 720р
Формат: MPEG-4
Видео кодек: H264
Видео: 3104Кбит/сек,1280х720(16.9),в 25.000кадр/сек,AVC(Baseline@L3.1)(1Ref Frames)
Аудио кодек: AAC
Аудио Russian Dolby Digital 5.1:455Кбит/сек,44.1КГц,6каналов,AAC,(Version4)(LC)



01 Ограбление по-нигерийски(The Nigerian Job).
02 Ветеранское дело(The Homecoming Job).
03 Дело о двух лошадях(The Two-Horse Job).
04 Церковное дело(The Miracle Job).
05 Банковское дело(The Bank Shot Job).
06 Семейное дело(The Stork Job).
07 Свадебное дело(The Wedding Job).
08 Дело на большой высоте(The Mile High Job).
09 Снежное дело(The Snow Job).
10 Дело о реабилитации(The 12-Step Job).
11 Дело о присяжном номер 6(The Juror #6 Job).
12 Дело о Первом Давиде(The First David Job).
13 Дело о Втором Давиде(The Second David Job).





01 Дело о Бостонской субсидии(The Beantown Bailout Job).
02 Дело о поражении(The Tap-Out Job).
03 Дело об эпидемии(The Order 23 Job).
04 Дело о волшебных феях(The Fairy Godparents Job).
05 Дело о "Трёх днях Хантер"(The Three Days of the Hunter Job).
06 Дело о фокусах(The Top Hat Job).
07 Дело о двух командах(The Two Live Crew Job).
08 Ледяное дело(The Ice Man Job).
09 Дело о потерянном наследнике(The Lost Heir Job).
10 Дело о подиуме(The Runway Job).
11 Дело о бутылке(The Bottle Job).
12 Дело о Занзибарском базаре(The Zanzibar Marketplace Job).
13 Дело о будущем(The Future Job).
14 Дело о бейсболе(The Three Strikes Job).
15 Дело о Мальтийском соколе(The Maltese Falcon Job).




01 Тюремное дело(The Jailhouse Job).
02 Дело об одноклассниках(The Reunion Job).
03 Внутреннее дело(The Inside Job).
04 Дело о Шахерезаде(The Scheherazade Job).
05 Дело о лекарствах(The Double Blind Job).
06 Работа в студии(The Studio Job).
07 Дело о рыбалке(The Gone-Fishin' Job).
08 Дело об угоне(The Boost Job).
09 Дело о наперстках(The Three-Card Monte Job).
10 Дело о шахте(The Underground Job).
11 Дело пятилетней давности(The Rashomon Job).
12 Дело о короле Георге(The King George Job).
13 Дело о пробуждении(The Morning After Job).
14 Дело о рождестве(The Ho, Ho, Ho Job).
15 Дело о большом взрыве(The Big Bang Job).
16 Дело о Сан-Лоренцо(The San Lorenzo Job).




01 Дело о длинном спуске (The Long Way Down Job)
02 Дело "Десять нахалят" (The 10 Li'l Grifters Job).
03 Дело пятнадцати минут (The 15 Minutes Job).
04 Дело о Ван Гоге (The Van Gogh Job).
05 Дело о горячей картошке (The Hot Potato Job).
06 Дело о ярмарке (The Carnival Job).
07 Смертельно опасное дело (The Grave Danger Job).
08 Дело о биржевых махинациях (The Boiler Room Job).
09 Дело о клятве (The Cross My Heart Job).
10 Дело "Ферзевый гамбит" (The Queen's Gambit Job).
11 Дело об эксперименте (The Experimental Job)
12 Дело об офисе (The Office Job)
13 Дело о вечере для девочек (The Girls' Night Out Job)
14 Дело о вечере для мальчиков (The Guys' Night Out Job)
15 Дело об одиноких сердцах (The Lonely Hearts Job)
16 Дело о золоте (The Gold Job)
17 Дело о радио (The Radio Job)
18 Дело о дамбе (The Last Dam Job)




01 Дело о большой пташке (The (Very) Big Bird Job)
02 Дело о подаче (The Blue Line Job)
03 Дело о первом контакте (The First Contact Job)
04 Дело о французских связях (The French Connection Job)
05 Дело о подборе ключей (The Gimme a K Street Job)
06 Дело о Д.Б. Купере (The D.B. Cooper Job)
07 Дело о настоящей ненастоящей машине (The Real Fake Car Job)
08 Дело о подбитом крыле (The Broken Wing Job)
09 Дело о провокации (The Rundown Job)
10 Дело о подтасовке (The Frame-Up Job)
11 Дело об очень низких ценах (The Low Low Price Job)
12 Дело о белом кролике (The White Rabbit Job)
13 Дело о штопоре (The Corkscrew Job)
14 Игрушечное дело (The Toy Job)
15 Дело о долгом прощании (The Long Good-bye Job)



Общее
Полное имя : F:\К И Н О\С Е Р И А Л Ы\В О З Д Е Й С Т В И Е\Leverage_s01_-_s05_rus[LostFilm_TV]_DD5.1_x264_Nikolai.Baranov_WEB-DLRip.AVC_(720p)\S02\Vozdeystvie.s02.e02.2009.rus.x264.Nikolai.Baranov.WEB-DLRip.AVC_(720p).mp4
Формат : MPEG-4
Профиль формата : Base Media
Идентификатор кодека : isom
Размер файла : 540 Мбайт
Продолжительность : 42 м.
Режим общего битрейта : Переменный
Общий поток : 1771 Кбит/сек
Дата кодирования : UTC 2010-12-29 20:19:42
Дата пометки : UTC 2010-12-29 20:19:42
Программа кодирования : Lavf51.12.1

Видео
Идентификатор : 1
Формат : AVC
Формат/Информация : Advanced Video Codec
Профиль формата : Baseline@L1.3
Параметр CABAC формата : Нет
Параметр ReFrames формата : 1 кадр
Параметр GOP формата : M=1, N=12
Идентификатор кодека : avc1
Идентификатор кодека/Информация : Advanced Video Coding
Продолжительность : 42 м.
Битрейт : 1529 Кбит/сек
Ширина : 1280 пикселей
Высота : 720 пикселей
Соотношение сторон : 16:9
Режим частоты кадров : Постоянный
Частота кадров : 29,970 кадров/сек
Цветовое пространство : YUV
Субдискретизация насыщенности : 4:2:0
Битовая глубина : 8 бит
Тип развёртки : Прогрессивная
Бит/(Пиксели*Кадры) : 0.055
Размер потока : 467 Мбайт (86%)
Язык : English
Дата кодирования : UTC 2010-12-29 20:19:42
Дата пометки : UTC 2010-12-29 20:19:42

Аудио
Идентификатор : 2
Формат : AAC
Формат/Информация : Advanced Audio Codec
Профиль формата : LC
Идентификатор кодека : 40
Продолжительность : 42 м.
Вид битрейта : Переменный
Битрейт : 237 Кбит/сек
Каналы : 6 каналов
Расположение каналов : Front: L C R, Side: L R, LFE
Частота : 44,1 КГц
Метод сжатия : С потерями
Размер потока : 72,4 Мбайт (13%)
Язык : Russian
Дата кодирования : UTC 2010-12-29 20:19:42
Дата пометки : UTC 2010-12-29 20:19:42



Общее
Полное имя : F:\К И Н О\С Е Р И А Л Ы\В О З Д Е Й С Т В И Е\Leverage_s01_-_s05_rus[LostFilm_TV]_DD5.1_x264_Nikolai.Baranov_WEB-DLRip.AVC_(720p)\S02\Vozdeystvie.s02.e02.2009.rus.x264.Nikolai.Baranov.WEB-DLRip.AVC_(720p).mp4
Формат : MPEG-4
Профиль формата : Base Media
Идентификатор кодека : isom
Размер файла : 540 Мбайт
Продолжительность : 42 м.
Режим общего битрейта : Переменный
Общий поток : 1771 Кбит/сек
Дата кодирования : UTC 2010-12-29 20:19:42
Дата пометки : UTC 2010-12-29 20:19:42
Программа кодирования : Lavf51.12.1

Видео
Идентификатор : 1
Формат : AVC
Формат/Информация : Advanced Video Codec
Профиль формата : Baseline@L1.3
Параметр CABAC формата : Нет
Параметр ReFrames формата : 1 кадр
Параметр GOP формата : M=1, N=12
Идентификатор кодека : avc1
Идентификатор кодека/Информация : Advanced Video Coding
Продолжительность : 42 м.
Битрейт : 1529 Кбит/сек
Ширина : 1280 пикселей
Высота : 720 пикселей
Соотношение сторон : 16:9
Режим частоты кадров : Постоянный
Частота кадров : 29,970 кадров/сек
Цветовое пространство : YUV
Субдискретизация насыщенности : 4:2:0
Битовая глубина : 8 бит
Тип развёртки : Прогрессивная
Бит/(Пиксели*Кадры) : 0.055
Размер потока : 467 Мбайт (86%)
Язык : English
Дата кодирования : UTC 2010-12-29 20:19:42
Дата пометки : UTC 2010-12-29 20:19:42

Аудио
Идентификатор : 2
Формат : AAC
Формат/Информация : Advanced Audio Codec
Профиль формата : LC
Идентификатор кодека : 40
Продолжительность : 42 м.
Вид битрейта : Переменный
Битрейт : 237 Кбит/сек
Каналы : 6 каналов
Расположение каналов : Front: L C R, Side: L R, LFE
Частота : 44,1 КГц
Метод сжатия : С потерями
Размер потока : 72,4 Мбайт (13%)
Язык : Russian
Дата кодирования : UTC 2010-12-29 20:19:42
Дата пометки : UTC 2010-12-29 20:19:42



Общее
Полное имя : F:\К И Н О\С Е Р И А Л Ы\В О З Д Е Й С Т В И Е\Leverage_s01_-_s05_rus[LostFilm_TV]_DD5.1_x264_Nikolai.Baranov_WEB-DLRip.AVC_(720p)\S03\Vozdeystvie.s03.e02.2010.rus.x264.Nikolai.Baranov.WEB-DLRip.AVC_(720p).mp4
Формат : MPEG-4
Профиль формата : Base Media
Идентификатор кодека : isom
Размер файла : 566 Мбайт
Продолжительность : 42 м.
Режим общего битрейта : Переменный
Общий поток : 1853 Кбит/сек
Дата кодирования : UTC 2011-01-01 15:17:52
Дата пометки : UTC 2011-01-01 15:17:52
Программа кодирования : Lavf51.12.1

Видео
Идентификатор : 1
Формат : AVC
Формат/Информация : Advanced Video Codec
Профиль формата : Baseline@L1.3
Параметр CABAC формата : Нет
Параметр ReFrames формата : 1 кадр
Параметр GOP формата : M=1, N=12
Идентификатор кодека : avc1
Идентификатор кодека/Информация : Advanced Video Coding
Продолжительность : 42 м.
Битрейт : 1529 Кбит/сек
Ширина : 1280 пикселей
Высота : 720 пикселей
Соотношение сторон : 16:9
Режим частоты кадров : Постоянный
Частота кадров : 29,970 кадров/сек
Цветовое пространство : YUV
Субдискретизация насыщенности : 4:2:0
Битовая глубина : 8 бит
Тип развёртки : Прогрессивная
Бит/(Пиксели*Кадры) : 0.055
Размер потока : 467 Мбайт (82%)
Язык : English
Дата кодирования : UTC 2011-01-01 15:17:52
Дата пометки : UTC 2011-01-01 15:17:52

Аудио
Идентификатор : 2
Формат : AAC
Формат/Информация : Advanced Audio Codec
Профиль формата : LC
Идентификатор кодека : 40
Продолжительность : 42 м.
Вид битрейта : Переменный
Битрейт : 320 Кбит/сек
Каналы : 6 каналов
Расположение каналов : Front: L C R, Side: L R, LFE
Частота : 44,1 КГц
Метод сжатия : С потерями
Размер потока : 97,8 Мбайт (17%)
Язык : Russian
Дата кодирования : UTC 2011-01-01 15:17:52
Дата пометки : UTC 2011-01-01 15:17:52



Общее
Полное имя : F:\К И Н О\С Е Р И А Л Ы\В О З Д Е Й С Т В И Е\Leverage_s01_-_s05_rus[LostFilm_TV]_DD5.1_x264_Nikolai.Baranov_WEB-DLRip.AVC_(720p)\S04\Vozdeystvie.s04.e02.2011.rus.x264.Nikolai.Baranov.WEB-DLRip.AVC_(720p).mp4
Формат : MPEG-4
Профиль формата : Base Media
Идентификатор кодека : isom
Размер файла : 539 Мбайт
Продолжительность : 42 м.
Режим общего битрейта : Переменный
Общий поток : 1777 Кбит/сек
Дата кодирования : UTC 2011-07-08 06:44:20
Дата пометки : UTC 2011-07-08 06:44:20
Программа кодирования : Lavf51.12.1

Видео
Идентификатор : 1
Формат : AVC
Формат/Информация : Advanced Video Codec
Профиль формата : Baseline@L1.3
Параметр CABAC формата : Нет
Параметр ReFrames формата : 1 кадр
Параметр GOP формата : M=1, N=12
Идентификатор кодека : avc1
Идентификатор кодека/Информация : Advanced Video Coding
Продолжительность : 42 м.
Битрейт : 1510 Кбит/сек
Ширина : 1280 пикселей
Высота : 720 пикселей
Соотношение сторон : 16:9
Режим частоты кадров : Постоянный
Частота кадров : 29,970 кадров/сек
Цветовое пространство : YUV
Субдискретизация насыщенности : 4:2:0
Битовая глубина : 8 бит
Тип развёртки : Прогрессивная
Бит/(Пиксели*Кадры) : 0.055
Размер потока : 458 Мбайт (85%)
Дата кодирования : UTC 2011-07-08 06:44:20
Дата пометки : UTC 2011-07-08 06:44:20

Аудио
Идентификатор : 2
Формат : AAC
Формат/Информация : Advanced Audio Codec
Профиль формата : LC
Идентификатор кодека : 40
Продолжительность : 42 м.
Вид битрейта : Переменный
Битрейт : 265 Кбит/сек
Каналы : 6 каналов
Расположение каналов : Front: L C R, Side: L R, LFE
Частота : 44,1 КГц
Метод сжатия : С потерями
Размер потока : 79,4 Мбайт (15%)
Дата кодирования : UTC 2011-07-08 06:44:20
Дата пометки : UTC 2011-07-08 06:44:20



Общее
Полное имя : F:\К И Н О\С Е Р И А Л Ы\В О З Д Е Й С Т В И Е\Leverage_s01_-_s05_rus[LostFilm_TV]_DD5.1_x264_Nikolai.Baranov_WEB-DLRip.AVC_(720p)\S05\Leverage_2012_S05е02_rus[LostFilm_TV]_DD5.1_x264_Nikolai.Baranov_WEB-DLRip.AVC_(720p).mp4
Формат : MPEG-4
Профиль формата : Base Media
Идентификатор кодека : isom
Размер файла : 1,06 Гбайт
Продолжительность : 42 м.
Режим общего битрейта : Переменный
Общий поток : 3564 Кбит/сек
Дата кодирования : UTC 2012-07-29 06:56:30
Дата пометки : UTC 2012-07-29 06:56:30
Программа кодирования : Lavf51.12.1

Видео
Идентификатор : 1
Формат : AVC
Формат/Информация : Advanced Video Codec
Профиль формата : Baseline@L3.1
Параметр CABAC формата : Нет
Параметр ReFrames формата : 1 кадр
Параметр GOP формата : M=1, N=12
Идентификатор кодека : avc1
Идентификатор кодека/Информация : Advanced Video Coding
Продолжительность : 42 м.
Вид битрейта : Переменный
Битрейт : 3104 Кбит/сек
Максимальный битрейт : 4500 Кбит/сек
Ширина : 1280 пикселей
Высота : 720 пикселей
Соотношение сторон : 16:9
Режим частоты кадров : Постоянный
Частота кадров : 25,000 кадров/сек
Частота кадров в оригинале : 24,000 кадра/сек
Цветовое пространство : YUV
Субдискретизация насыщенности : 4:2:0
Битовая глубина : 8 бит
Тип развёртки : Прогрессивная
Бит/(Пиксели*Кадры) : 0.135
Размер потока : 942 Мбайт (87%)
Дата кодирования : UTC 2012-07-29 06:56:30
Дата пометки : UTC 2012-07-29 06:56:30

Аудио
Идентификатор : 2
Формат : AAC
Формат/Информация : Advanced Audio Codec
Профиль формата : LC
Идентификатор кодека : 40
Продолжительность : 42 м.
Вид битрейта : Переменный
Битрейт : 456 Кбит/сек
Каналы : 6 каналов
Расположение каналов : Front: L C R, Side: L R, LFE
Частота : 44,1 КГц
Метод сжатия : С потерями
Размер потока : 138 Мбайт (13%)
Дата кодирования : UTC 2012-07-29 06:56:30
Дата пометки : UTC 2012-07-29 06:56:30























1 сезон

2 сезон

3 сезон

4 сезон

5 сезон


1. Открыть торрент
2. Снять галки с тех файлов торрента, которые мы не хотим закачивать. Оставляем только на нужных нам файлах (файле).
3. Нажать О.К.

В клиенте utorrent

Инструкция

1) Открыть торрент


2) Снять галки с тех файлов торрента, которые мы не хотим закачивать:

* либо вручную, снимая с каждого файла галку( скрин №1)
* либо, нажав кнопку "Снять метки (Select None)", сняв сразу со всех файлов(скрин №2)
№1

№2

Оставляем только на нужных нам файлах (файле).

3)Нажать О.К



Внимание!!!07.01. 2013. РАЗДАЧА ОБНОВЛЕНА.ОБНОВИТЕ ТОРЕНТ ФАЙЛ.ПРИЯТНОГО ПРОСМОТРА.

Релиз от: Nikolai.Baranov





_________________

Легко быть оптимистом, когда судьба не валит с ног тяжелыми ударами, а лишь иногда легонько шлепает по заднице.



реклама партнёра


Вернуться к началу
 Профиль Отправить личное сообщение  
 
   Похожие торренты   Автор   Торрент   Размер 
В этой теме нет новых непрочитанных сообщений. Библиотекари / The Librarians [02x01-03 из 10] (Дин Девлин, Марк Роскин, Джонатан Фрейкс) [2015, приключения, HDTVRip 720р | ViruseProject]

Dracon

14 | 8

2.81 ГБ

В этой теме нет новых непрочитанных сообщений. Библиотекари / The Librarians [02х01-10 из 10] (Джонатан Фрейкс, Марк Роскин, Дин Девлин) [фантастика, приключения, 2015] WEB-DLRip [LostFilm]

Dracon

0 | 0

5.9 ГБ

В этой теме нет новых непрочитанных сообщений. Библиотекари/ The Librarians [02х01-09 из 10] (Джонатан Фрейкс, Марк Роскин, Дин Девлин) [2015, Фантастика, приключения, WEB-DLRip 1080p | LostFilm]

Nickolas3435

1 | 5

16.02 ГБ

В этой теме нет новых непрочитанных сообщений. Библиотекари / The Librarians [01х01-04 из 10] (Дин Девлин, Марк Роскин, Джонатан Фрейкс) [2014, Приключения, WEB-DL 1080p | LevshaFilm]

Nickolas3435

294 | 95

6.1 ГБ

В этой теме нет новых непрочитанных сообщений. Библиотекари / The Librarians [02х01-10 из 10] (Джонатан Фрейкс, Марк Роскин, Дин Девлин) [фантастика, приключения, 2015] WEB-DLRip [BaiBaKo]

Dracon

55 | 23

5.62 ГБ

В этой теме нет новых непрочитанных сообщений. Библиотекари / The Librarians [01х01-05 из 10] (Дин Девлин, Джонатан Фрейкс) [2014, Приключения, WEB-DL 720p | LostFilm]

Nickolas3435

116 | 106

8.09 ГБ

В этой теме нет новых непрочитанных сообщений. Библиотекари / The Librarians [01х01-06 из 10] (Дин Девлин, Джонатан Фрейкс) [2014, Приключения, WEB-DL 720p | LostFilm]

Nickolas3435

84 | 52

9.49 ГБ


Начать новую тему Ответить на тему  [ 1 сообщение ] 




Для Мосгорсуда, Роскомнадзора и рекламодателей:: mosgorsud-torrent[собачка]yandex.ru