Оценка торрента
5 0%  0%  [ 0 ]
4 0%  0%  [ 0 ]
3 0%  0%  [ 0 ]
2 0%  0%  [ 0 ]
1 0%  0%  [ 0 ]
5 0%  0%  [ 0 ]
4 0%  0%  [ 0 ]
3 0%  0%  [ 0 ]
2 0%  0%  [ 0 ]
1 0%  0%  [ 0 ]
Всего голосов : 0
Торрент файл
скачать торрент магнет ссылка Добавлен: 14 июл 2011, 16:35
Размер: 4.99 ГБ
Сидеров: 30
Личеров: 12
Автор

СообщениеДобавлено: 14 июл 2011, 16:35 

Не в сети
Аватара пользователя
Дата регистрации:
24 дек 2010, 18:42
Возраст: 24
Спасибо: 78 / 6
Сообщения: 299
Откуда: Астрахань

Теория Большого Взрыва



Год выхода в эфир: 2007
Страна: США
Жанр: комедия
Продолжительность: 17 эпизодов по ~ 22 минуты
Перевод: Профессиональный (многоголосый, закадровый)

Режиссер: Джеймс Барроус
В ролях: Джонни Галэки (Leonard Hofstadter), Джим Парсонс (Sheldon Cooper), Кейли Куоко (Penny), Саймон Хелберг (Howard Wolowitz), Кунал Нэйэр (Raj Koothrappali)

Два блестящих физика, Леонард и Шелдон, «великие умы», которые понимают как «работает вселенная». Но их гениальность ничуть не помогает им общаться с людьми, особенно с женщинами. Всё начинает меняться, когда напротив них поселяется красавица Пенни. Когда Леонард и Шелдон встречают Пенни, Леонард сразу же начинает интересоваться ею. Он видит в общении с Пенни огромную перспективу, вплоть до любви, однако Шелдон понимает, что мечтам его друга не суждено сбыться. Стоит также отметить пару странных друзей этих физиков: Воловец, который любит употреблять фразы на разных языках, включая русский, и Раджеш Кутрапали, теряющий дар речи при виде женщин.

Озвучено: Cтудия «Novamedia» по заказу телеканала СТС



Качество: DVDRip
Формат: AVI
Видео кодек: XviD
Аудио кодек: MP3
Видео: 720x400 (1.80:1), 25 fps, XviD build 50 ~1600 kbps avg, 0.23 bit/pixel
Аудио #1: 48 kHz, MPEG Layer 3, 2 ch, ~128 kbps avg |СТС|
Аудио #2: 48 kHz, MPEG Layer 3, 2 ch, ~128 kbps avg |Оригинал|

1x01. Pilot
1x02. The Big Bran Hypothesis
1x03. The Fuzzy Boots Corollary
1x04. The Luminous Fish Effect
1x05. The Hamburger Postulate
1x06. The Middle Earth Paradigm
1x07. The Dumpling Paradox
1x08. The Grasshopper Experiment
1x09. The Cooper-Hofstadter Polarization
1x10. The Loobenfeld Decay
1x11. The Pancake Batter Anomaly
1x12. The Jerusalem Duality
1x13. The Bat Jar Conjecture
1x14. The Nerdvana Annihilation
1x15. The Pork Chop Indeterminacy
1x16. The Peanut Reaction
1x17. The Tangerine Factor
Код:
General
Complete name                    : the.big.bang.theory.s01e01.dvdrip.rus(novamedia).eng_0dayTeam.avi
Format                           : AVI
Format/Info                      : Audio Video Interleave
File size                        : 300 MiB
Duration                         : 21mn 59s
Overall bit rate                 : 1 905 Kbps
Writing application              : VirtualDubMod 1.5.10.2 (build 2540/release)
Writing library                  : VirtualDubMod build 2540/release
Video
ID                               : 0
Format                           : MPEG-4 Visual
Format profile                   : Advanced Simple@L5
Format settings, BVOP            : 2
Format settings, QPel            : No
Format settings, GMC             : No warppoints
Format settings, Matrix          : Default (MPEG)
Codec ID                         : XVID
Codec ID/Hint                    : XviD
Duration                         : 21mn 59s
Bit rate                         : 1 627 Kbps
Width                            : 720 pixels
Height                           : 400 pixels
Display aspect ratio             : 16:9
Frame rate                       : 25.000 fps
Color space                      : YUV
Chroma subsampling               : 4:2:0
Bit depth                        : 8 bits
Scan type                        : Progressive
Compression mode                 : Lossy
Bits/(Pixel*Frame)               : 0.226
Stream size                      : 256 MiB (85%)
Writing library                  : XviD 1.2.1 (UTC 2008-12-04)
Audio #1
ID                               : 1
Format                           : MPEG Audio
Format version                   : Version 1
Format profile                   : Layer 3
Mode                             : Joint stereo
Mode extension                   : MS Stereo
Codec ID                         : 55
Codec ID/Hint                    : MP3
Duration                         : 21mn 59s
Bit rate mode                    : Constant
Bit rate                         : 128 Kbps
Channel(s)                       : 2 channels
Sampling rate                    : 48.0 KHz
Compression mode                 : Lossy
Stream size                      : 20.1 MiB (7%)
Alignment                        : Aligned on interleaves
Interleave, duration             : 40 ms (1.00 video frame)
Interleave, preload duration     : 504 ms
Audio #2
ID                               : 2
Format                           : MPEG Audio
Format version                   : Version 1
Format profile                   : Layer 3
Mode                             : Joint stereo
Mode extension                   : MS Stereo
Codec ID                         : 55
Codec ID/Hint                    : MP3
Duration                         : 21mn 59s
Bit rate mode                    : Variable
Bit rate                         : 128 Kbps
Channel(s)                       : 2 channels
Sampling rate                    : 48.0 KHz
Compression mode                 : Lossy
Stream size                      : 20.9 MiB (7%)
Alignment                        : Aligned on interleaves
Interleave, duration             : 24 ms (0.60 video frame)
Interleave, preload duration     : 138 ms
Writing library                  : LAME3.90.
Encoding settings                : -m j -V 4 -q 2 -lowpass 17.6 --abr 128


_________________
Понравился релиз? Не забудь сказать спасибо!
Фан-сайт сериала "Спартак" / Форум фан-сайта сериала "Спартак"
ICQ: 8758899
E-Mail: ygo.admin@gmail.com
О нас думают плохо лишь те, кто хуже нас, а те кто лучше нас... Им просто не до нас © Омар Хайям



реклама партнёра


Вернуться к началу
 Профиль Отправить личное сообщение  
 
   Похожие торренты   Автор   Торрент   Размер 
В этой теме нет новых непрочитанных сообщений. Теория большого взрыва / The Big Bang Theory [S01-09] [комедия, ситком, 2007-2016] BDRip, WEB-DLRip, Avo [Кураж-Бамбей]

marya111

0 | 0

48.35 ГБ

В этой теме нет новых непрочитанных сообщений. Теория большого взрыва / The Big Bang Theory [S01-08] (Марк Сендроуски, Энтони Джозеф Рич, Питер Чакос) [Комедия, 2007–2015] WEB-DLRip [Кураж-Бамбей]

Dracon

256 | 517

34.59 ГБ

В этой теме нет новых непрочитанных сообщений. Теория большого взрыва / The Big Bang Theory [10x01-06 из 24] (Ситком, комедия, 2016) HDTVRip | IdeaFilm

marya111

13 | 18

1.53 ГБ

В этой теме нет новых непрочитанных сообщений. Теория большого взрыва / The Big Bang Theory [10x01-04 из 24] [Ситком, комедия, 2016] HDTVRip, Mvo [IdeaFilm]

marya111

10 | 12

1.01 ГБ

В этой теме нет новых непрочитанных сообщений. Теория большого взрыва / The Big Bang Theory [10х01-08 из 24] (Комедия, 2016) HDTVRip 720p | LevshaFilm

marya111

2 | 17

3.54 ГБ

В этой теме нет новых непрочитанных сообщений. Теория большого взрыва / The Big Bang Theory [10x01-10 из 24] (2016) HDTVRip | IdeaFilm

marya111

83 | 312

2.59 ГБ

В этой теме нет новых непрочитанных сообщений. Теория большого взрыва / The Big Bang Theory [10x01-09 из 24] (2016) HDTVRip | IdeaFilm

marya111

39 | 45

2.32 ГБ


Начать новую тему Ответить на тему  [ 1 сообщение ] 




Для Мосгорсуда, Роскомнадзора и рекламодателей:: mosgorsud-torrent[собачка]yandex.ru