Торрент файл
скачать торрент магнет ссылка Добавлен: 08 июн 2011, 18:55
Размер: 499.96 МБ
Сидеров: 2
Личеров: 2
Автор

СообщениеДобавлено: 08 июн 2011, 18:55 

Не в сети
Аватара пользователя
Дата регистрации:
24 дек 2010, 18:42
Возраст: 24
Спасибо: 78 / 6
Сообщения: 299
Откуда: Астрахань
-Волчонок / Teen Wolf--Год выпуска: 2011
Страна: США | MTV
Жанр: драма, комедия
Продолжительность: ~ 00:44:00
Перевод: Любительский (многоголосый, закадровый) RG.Paravozik
Режиссер: Рассел Малкэй-В ролях:
Тайлер Пози, Кристал Рид, Дилан О’Брайэн, Колтон Хэйнс, Холлэнд Роден, Линден Эшби, Тайлер Хёхлин, ДжейАр Борн, Мелисса Понцио и др. -Описание:
Скотт был просто обычным парнем, пока один укус не изменил его жизнь навсегда. Теперь он изо всех сил пытается понять, кто он и кем он может стать. В нем больше волка чем человека - или все совсем наоборот? Как бы то ни было, легко не будет. Скотт попытается управлять своими наклонностями, но больше всего он боится, что эти его новые наклонности, в конце концов, начнут управлять им. "Волчонок" - история Скотта, то как он пытается идти по узкой границе между тем, чего он хочет и чего он не может не хотеть. Станет ли случившееся с ним благословением? Или это будет проклятие? И как это отразится на его отношениях с Аллисон - девушкой, которую он так любит? Только время покажет, должен ли он принять свои новообретенные способности, или бояться их.
Спасибо Аланике за описание...-Качество: WEB-DLRip
Формат: AVI
Видео кодек: XviD
Аудио кодек: MP3
Видео: 720*400 (1.80), 23.976 fps, XviD MPEG-4, ~1424 kbps, 0.21 bit/pixel
Аудио RUS: 48 kHz, MPEG Layer 3, 2 ch, ~128 kbps avg
Аудио ENG: 48 kHz, MPEG Layer 3, 2 ch, ~128 kbps avg-Релиз: &
Перевод: RG.Paravozik
Озвучка: NEMIROFF_, Скетчер, grosvenor, Дмитрий Стукалов, Марина Иванова
Сведение и мастеринг: NEMIROFF_
Работа с видео: 761Opiter (500-ka)-Все раздачи сериала | Сэмпл | IMDb | КиноПоиск--
Список серий
-- 05.06.2011 01 - Pilot-

Скриншоты
- Как закачать отдельный файл из торрента или докачать ранее пропущенные файлы торрента! -
MI
Код:
General
Complete name: E:\Teen Wolf - Season 1 (RG.Paravozik & TV-Shows)\teen.wolf.s01e01.web-dlrip.rus.[RG.paravozik.&.TV-Shows].eng.avi
Format: AVI
Format/Info: Audio Video Interleave
File size: 500 MiB
Duration: 41mn 10s
Overall bit rate: 1 697 Kbps
Writing application: VirtualDubMod 1.5.10.2 (build 2540/release)
Writing library: VirtualDubMod build 2540/release
Video
ID: 0
Format: MPEG-4 Visual
Format profile: Advanced Simple@L5
Format settings, BVOP: Yes
Format settings, QPel: No
Format settings, GMC: No warppoints
Format settings, Matrix: Default (H.263)
Codec ID: XVID
Codec ID/Hint: XviD
Duration: 41mn 10s
Bit rate: 1 427 Kbps
Width: 720 pixels
Height: 400 pixels
Display aspect ratio: 16:9
Frame rate: 23.976 fps
Resolution: 8 bits
Colorimetry: 4:2:0
Scan type: Progressive
Bits/(Pixel*Frame): 0.207
Stream size: 420 MiB (84%)
Writing library: XviD 1.2.1 (UTC 2008-12-04)
Audio #1
ID: 1
Format: MPEG Audio
Format version: Version 1
Format profile: Layer 3
Format_Settings_Mode: Joint stereo
Format_Settings_ModeExtension: MS Stereo
Codec ID: 55
Codec ID/Hint: MP3
Duration: 41mn 10s
Bit rate mode: Constant
Bit rate: 128 Kbps
Channel(s): 2 channels
Sampling rate: 48.0 KHz
Stream size: 37.7 MiB (8%)
Alignment: Aligned on interleaves
Interleave, duration: 42 ms (1.00 video frame)
Interleave, preload duration: 504 ms
Audio #2
ID: 2
Format: MPEG Audio
Format version: Version 1
Format profile: Layer 3
Codec ID: 55
Codec ID/Hint: MP3
Duration: 41mn 10s
Bit rate mode: Constant
Bit rate: 128 Kbps
Channel(s): 2 channels
Sampling rate: 48.0 KHz
Stream size: 37.7 MiB (8%)
Alignment: Aligned on interleaves
Interleave, duration: 42 ms (1.00 video frame)
Interleave, preload duration: 504 ms
Writing library: LAME3.98r
Encoding settings: -m s -V 4 -q 2 -lowpass 17 -b 128
Внимание! Раздача ведётся путём добавления новых серий!
Внимание! Раздача ведётся путём добавления новых серий; при каждом добавлении создётся новый торрент. Чтобы начать докачку новой серии, пользователям необходимо сделать следующее:
(1) остановить скачивание,
(2) удалить старый торрент у себя из клиента (старые серии удалять не надо),
(3) скачать новый торрент и запустить его у себя в клиенте вместо старого, при этом указать клиенту путь в старую папку куда и должно происходить скачивание новых серий.
Ваш клиент при этом должен произвести хеширование (проверку) старой папки (если не производит сам - помогите ему сделать это), и будет докачивать только те серии которых у вас ещё нет. Старые серии при этом не удаляются, а продолжают раздаваться!
Eсли вы уже удалили старые серии, то предотвратить повторную закачку старых серий можно, отжав галочку в соответсвующих местах при запуске нового торрента.
--




реклама партнёра


Вернуться к началу
 Профиль Отправить личное сообщение  
 
   Похожие торренты   Автор   Торрент   Размер 
В этой теме нет новых непрочитанных сообщений. Волчонок / Teen Wolf / 5 сезон 1-6 серии из 20 [Мистика, драма, приключения, комедия, 2015] HDTVRip, Mvo [RG.Paravozik]

salma3

27 | 31

2.88 ГБ

В этой теме нет новых непрочитанных сообщений. Поглощён Волчонок / Оборотень / Teen Wolf [04х01-04] (Рассел Малкэй) [2014, триллер, драма, комедия, HDTVRip | Kerob] Данный торрент является блокированным, причина: поглощённый торрент

Nickolas3435

206 | 178

1.58 ГБ

В этой теме нет новых непрочитанных сообщений. Волчонок / Оборотень / Teen Wolf [04х01-06] (Рассел Малкэй) [2014, триллер, драма, комедия, HDTVRip | Kerob]

Nickolas3435

62 | 64

2.42 ГБ

В этой теме нет новых непрочитанных сообщений. Волчонок / Оборотень / Teen Wolf [04х01-02] (Рассел Малкэй) [2014, триллер, драма, комедия, HDTVRip | Kerob]

Nickolas3435

73 | 55

835.69 МБ

В этой теме нет новых непрочитанных сообщений. Поглощён Волчонок / Оборотень / Teen Wolf [04х01-03] (Рассел Малкэй) [2014, триллер, драма, комедия, HDTVRip | Kerob] Данный торрент является блокированным, причина: поглощённый торрент

Nickolas3435

315 | 390

1.22 ГБ

В этой теме нет новых непрочитанных сообщений. Волчонок / Оборотень / Teen Wolf [04х01-02] (Рассел Малкэй) [2014, триллер, драма, комедия, HDTV 720р | Kerob]

Nickolas3435

92 | 45

1.75 ГБ

В этой теме нет новых непрочитанных сообщений. Волчонок / Teen Wolf [S03] (Тим Эндрю, Рассел Малкэй, Тоби Уилкинс) [2013-2014, Мистика, драма, приключения, комедия, WEB-DL 720р | VO-production]

Nickolas3435

68 | 46

26.47 ГБ


Начать новую тему Ответить на тему  [ 1 сообщение ] 




Для Мосгорсуда, Роскомнадзора и рекламодателей:: mosgorsud-torrent[собачка]yandex.ru