Торрент файл
скачать торрент магнет ссылка Добавлен: 08 авг 2021, 15:10
Размер: 7.98 ГБ
Сидеров: 2
Личеров: 1
Автор

СообщениеДобавлено: 08 авг 2021, 15:10 

Не в сети
Аватара пользователя
Дата регистрации:
09 авг 2014, 12:07
Спасибо: 76 / 1
Сообщения: 427
Откуда: КРАСНОГОРСК
Чики / Chiki - (Сезон 1 , Серия 1- 8 из 8 ) - Полный Комплект



Год выпуска: 2020
Выпущено: Россия, НМГ Студия, Марс Медиа
Жанр: Драма, комедия
Продолжительность 00:47:00
Сезон:1
Серия:1-8
Количество серий в сезоне:78

Озвучка #1: - Оригинал - Русский

Релиз Без Рекламы - Ненормативная лексика -



Режиссер: Эдуард Оганесян

В ролях: Ирина Горбачёва, Варвара Шмыкова, Ирина Носова (II), Алёна Михайлова, Даниил Кузнец, Виталий Кищенко, Антон Лапенко, Виктория Толстоганова, Михаил Тройник, Сергей Гилёв, Ксения Радченко (II), Стивен Томас Окснер, Дэни Яровский


Юг. Поля подсолнухов, шашлычный дымок, спелые арбузы, джигиты на лошадях и жигулях. У трассы в притоне нелегким трудом зарабатывают на жизнь три подруги – Света, Марина и Людка. Раньше их было четверо. Самая смелая и предприимчивая – Жанна – укатила в Москву и вернулась на красном MINI Cooper с идеей начать свой бизнес. Одна за другой подруги присоединяются к плану завязать с грязным прошлым. Это трудно и даже опасно, но оно точно того стоит.



Качество : -WEB-DLRip - HEVC - 1080p.

Формат: MKV

Видео кодек: H265

Видео: 2299 Кбит/сек,1920х808 (240.1),в 25.000 кадр/сек, HEVC (Main10@L5.2@Main)

Аудио Кодек: AC3

Аудио #1: Original@DD5.1 AC3 , 320 Kbps, 48.0 KHz, 6 ch6


Звуковая дорожка сделана путем наложения чистого голоса озвучивателей на центральный канал оригинальной дорожки. Качество идентично звуковой дорожке.


Общее
Уникальный идентификатор : 299974573272277039897324650281334917318 (0xE1AD0056A33F348CC79AB33B5BF6C8C6)
Полное имя : F:\Чики\2020_Chiki_S01_HEVC_DD5.1_N.B_HD_1080_Rus\2020_Chiki_S01E01-Е02_HEVC_DD5.1_N.B_HD_1080_Rus.mkv
Формат : Matroska
Версия формата : Version 4
Размер файла : 1,68 Гбайт
Продолжительность : 1 ч. 31 м.
Общий поток : 2 621 Кбит/сек
Название фильма : 2020 Chiki S01E01-Е02 @ Nikolai.Baranov & PIRATIYA
Дата кодирования : UTC 2021-08-08 07:06:03
Программа кодирования : mkvmerge v60.0.0 ('Are We Copies?') 64-bit
Библиотека кодирования : libebml v1.4.2 + libmatroska v1.6.4

Видео
Идентификатор : 1
Формат : HEVC
Формат/Информация : High Efficiency Video Coding
Профиль формата : Main 10@L5.2@Main
Идентификатор кодека : V_MPEGH/ISO/HEVC
Продолжительность : 1 ч. 31 м.
Битрейт : 2 299 Кбит/сек
Ширина : 1 920 пикселей
Высота : 808 пикселей
Соотношение сторон : 2,40:1
Режим частоты кадров : Постоянный
Частота кадров : 25,000 кадров/сек
Цветовое пространство : YUV
Субдискретизация насыщенности : 4:2:0
Битовая глубина : 10 бит
Бит/(Пиксели*Кадры) : 0.059
Размер потока : 1,47 Гбайт (88%)
Заголовок : 2020_Chiki_S01E01-Е02_HEVC_DD5.1_N.B_HD_1080_Rus
Язык : Russian
Default : Нет
Forced : Нет
Цветовой диапазон : Full
Основные цвета : BT.709
Характеристики трансфера : BT.709
Коэффициенты матрицы : BT.709

Аудио
Идентификатор : 2
Формат : AC-3
Формат/Информация : Audio Coding 3
Коммерческое название : Dolby Digital
Идентификатор кодека : A_AC3
Продолжительность : 1 ч. 31 м.
Вид битрейта : Постоянный
Битрейт : 320 Кбит/сек
Каналы : 6 каналов
Channel layout : L R C LFE Ls Rs
Частота : 48,0 КГц
Частота кадров : 31,250 кадров/сек (1536 SPF)
Метод сжатия : С потерями
Размер потока : 210 Мбайт (12%)
Заголовок : Original@DD5.1 AC3 , 320 Kbps, 48.0 KHz, 6 ch
Язык : Russian
Service kind : Complete Main
Default : Нет
Forced : Нет

Меню
00:00:00.000 : ru:Глава 01







1Сезон


1. Открыть торрент
2. Снять галки с тех файлов торрента, которые мы не хотим закачивать. Оставляем только на нужных нам файлах (файле).
3. Нажать О.К.

В клиенте utorrent

Инструкция

1) Открыть торрент


2) Снять галки с тех файлов торрента, которые мы не хотим закачивать:

* либо вручную, снимая с каждого файла галку( скрин №1)
* либо, нажав кнопку "Снять метки (Select None)", сняв сразу со всех файлов(скрин №2)
№1

№2

Оставляем только на нужных нам файлах (файле).

3)Нажать О.К







Релиз от: Nikolai.Baranov & PIRATIYAПоблагодарить:
ЯД: 410017546713876








Время раздачи : 24/7


_________________

Легко быть оптимистом, когда судьба не валит с ног тяжелыми ударами, а лишь иногда легонько шлепает по заднице.


Вернуться к началу
 Профиль Отправить личное сообщение  
 
   Похожие торренты   Автор   Торрент   Размер 
В этой теме нет новых непрочитанных сообщений. Игра на выживание / Game of survival (Сезон 1 , Серия 1-12 из 12)) (Карен Оганесян) [2020, Приключения, триллер, драма , WEB-DLRip - HEVC - 1080p]

Враг Нароода

1 | 1

14.28 ГБ

В этой теме нет новых непрочитанных сообщений. Гусар / Gusar (Сезон 1 , (Сезон 1 , Серия 1-18 из 18 ) (Заур Болотаев, Рустам Мосафир) [2020, Комедия , WEB-DLRip - HEVC - 1080p]

Враг Нароода

2 | 0

10.46 ГБ

В этой теме нет новых непрочитанных сообщений. #СидЯдома / # SidYadoma (Сезон 1 , Серия 1-8 из 8) ( Ольга Френкель) [2020, Комедия,WEB-DLRip - HEVC 10bit 1080p]

Враг Нароода

0 | 0

5.4 ГБ

В этой теме нет новых непрочитанных сообщений. ЧУМА! Вторая волна / Plague! (Сезон 1-2 , Серия 1-14 из 14 ) ( Андрей Богатырёв) [2020, Комедия , WEB-DLRip - HEVC - 1080p]

Враг Нароода

0 | 2

8.08 ГБ

В этой теме нет новых непрочитанных сообщений. Вспышка / Flash (Сезон 1 , Серия 1- 20 из 20 ) (Роман Ярославцев) [2020, Боевик, комедия, детектив , WEB-DLRip - HEVC 10bit - 1080p

Враг Нароода

0 | 1

25.28 ГБ

В этой теме нет новых непрочитанных сообщений. Окаянные дни / Cursed days (Сезон 1 , Серия 1--10 из 10) (Андрей Болтенко, Ирина Вилкова) [2020, Комедия,WEB-DLRip - HEVC 10bit 1080p]

Враг Нароода

0 | 0

3.98 ГБ

В этой теме нет новых непрочитанных сообщений. Волк / Wolf (Сезон 1, Серия 1-14 из 14 ) (Геннадий Островский) [2020, Детектив, драма, исторический, приключения, экранизация , WEB-DLRip - HEVC - 1080p]

Враг Нароода

0 | 0

18.78 ГБ


Начать новую тему Ответить на тему  [ 1 сообщение ] 




Для Мосгорсуда, Роскомнадзора и рекламодателей:: rstracker[собака]yandex.ru
cron