Торрент файл
скачать торрент магнет ссылка Добавлен: 02 дек 2019, 14:08
Размер: 2.29 ГБ
Сидеров: 61
Личеров: 9
Статус: (salma3)
Автор

СообщениеДобавлено: 02 дек 2019, 14:08 

Не в сети
Супермодератор
Аватара пользователя
Дата регистрации:
15 фев 2012, 16:44
Возраст: 30
Спасибо: 8134 / 2148
Сообщения: 94991
Год выхода: 2019
Жанр: Мелодрама
Режиссер: Игорь Москвитин

В ролях: Ольга Сухарева, Александр Давыдов (IV), Тимофей Каратаев, Алла Масленникова, Валерия Ходос, Денис Роднянский, Инга Нагорная, Никита Пархоменко, Данила Бочков

О фильме:
По мнению друзей и знакомых, у Елены Соколовской была не жизнь, а сказка: богатый муж, мудрая свекровь, сын - отличник и спортсмен. А еще вот-вот родится дочь. Но автоавария разбила эту сказку вдребезги, и в обломках отразилась реальность: измена, ложь, подлость, одиночество. Спасти Елену от падения в пучину безумия оказались способны лишь маленькая Маша и ее папа Андрей...

Страна: Россия, Украина
Продолжительность: 4 х 00:45:05
Перевод: Не требуется

Файл
Кодек: XviD
Качество: WEB-DLRip
Видео: XviD, ~ 1615 Кбит/с, 720x400, 25 кадр/с
Звук: AC3, 2 ch, 192 Кбит/с


General
Complete name : C:01.Ты только верь.(2019).WEB-DLRip.by.Nicodem.Files-x.avi
Format : AVI
Format/Info : Audio Video Interleave
File size : 585 MiB
Duration : 45mn 2s
Overall bit rate : 1 817 Kbps
Writing application : VirtualDubMod 1.5.10.3 | http://www.virtualdub-fr.org || (build 2550/release)
Writing library : VirtualDubMod build 2550/release

Video
ID : 0
Format : MPEG-4 Visual
Format profile : Advanced Simple@L5
Format settings, BVOP : 1
Format settings, QPel : No
Format settings, GMC : No warppoints
Format settings, Matrix : Custom
Codec ID : XVID
Codec ID/Hint : XviD
Duration : 45mn 2s
Bit rate : 1 615 Kbps
Width : 720 pixels
Height : 400 pixels
Display aspect ratio : 16:9
Frame rate : 25.000 fps
Color space : YUV
Chroma subsampling : 4:2:0
Bit depth : 8 bits
Scan type : Progressive
Compression mode : Lossy
Bits/(Pixel*Frame) : 0.224
Stream size : 520 MiB (89%)
Writing library : XviD 73

Audio
ID : 1
Format : AC-3
Format/Info : Audio Coding 3
Mode extension : CM (complete main)
Codec ID : 2000
Duration : 45mn 2s
Bit rate mode : Constant
Bit rate : 192 Kbps
Channel(s) : 2 channels
Channel positions : Front: L R
Sampling rate : 48.0 KHz
Bit depth : 16 bits
Compression mode : Lossy
Stream size : 61.9 MiB (11%)
Alignment : Split accross interleaves
Interleave, duration : 40 ms (1.00 video frame)
Interleave, preload duration : 500 ms

Релиз от:


_________________
Проголосуй за трекер Открытый торрент трекер - RUS-MEDIA.ORG

Проголосуй Открытый торрент трекер - RUS-MEDIA.ORG


Скачать книги и аудио книги через торрент


Вернуться к началу
 Профиль Отправить личное сообщение  
 
   Похожие торренты   Автор   Торрент   Размер 
В этой теме нет новых непрочитанных сообщений. Верь мне [01-04 из 04] [Мелодрама, детектив, 2018] WEB-DLRip

salma3

0 | 0

2.54 ГБ

В этой теме нет новых непрочитанных сообщений. Управдомша [01-02 из 02] [Мелодрама, 2019] WEB-DLRip

salma3

0 | 0

2.28 ГБ

В этой теме нет новых непрочитанных сообщений. Садовница [01-04 из 04] [Мелодрама, 2019] WEB-DLRip

salma3

98 | 17

2.42 ГБ

В этой теме нет новых непрочитанных сообщений. Анютины глазки [01-02 из 02] [Мелодрама, 2019] WEB-DLRip

salma3

0 | 0

2.25 ГБ

В этой теме нет новых непрочитанных сообщений. Ангел-хранитель [01-16 из 16] [Мелодрама, 2019] WEB-DLRip

salma3

0 | 0

8.71 ГБ

В этой теме нет новых непрочитанных сообщений. Отчаянные [01-12 из 12] [Детектив, мелодрама, 2019] WEB-DLRip

salma3

5 | 4

6.53 ГБ

В этой теме нет новых непрочитанных сообщений. Её мужчины [01-04 из 04] [Комедия, мелодрама, 2019] WEB-DLRip

salma3

0 | 0

2.74 ГБ


Начать новую тему Ответить на тему  [ 1 сообщение ] 




Для Мосгорсуда, Роскомнадзора и рекламодателей:: mosgorsud-torrent[собачка]yandex.ru
cron