COVID-19 - Последняя информация о коронавирусе на сайте Минздрава




Торрент файл
скачать торрент магнет ссылка Добавлен: 23 ноя 2019, 22:35
Размер: 4.36 ГБ
Сидеров: 1
Личеров: 0
Статус: (salma3)
Автор

СообщениеДобавлено: 23 ноя 2019, 22:35 

Не в сети
Супермодератор
Аватара пользователя
Дата регистрации:
15 фев 2012, 16:44
Возраст: 31
Спасибо: 8277 / 2148
Сообщения: 96623
Год выпуска: 2011
Жанр: Детектив
Выпущено: Россия, Студия «Анкор»
Режиссер: Вадим Шмелев

В ролях: Дмитрий Певцов,Фёдор Бондарчук, Екатерина Гусева, Анатолий Кот, Алексей Макаров, Даниил Спиваковский, Игорь Верник, Андрей Руденский, Александр Носик, Ольга Филиппова

О фильме: Взрыв машины в центре Москвы. Двойной агент в недрах российских спецслужб. Международный торговец оружием «под колпаком» у МИ-6. Отравленный в Лондоне диссидент. Монах из Косово, спасающий уникальную икону. Американские ПРО в Восточной Европе. Расстрелянный в Варшаве террорист. Знаменитый российский физик в центре политического скандала. Опасный преступник, живущий в Таллинне под чужим именем и под чужим лицом.



Файл
Качество: WEBRip
Видео: XviD build 73, 720x400 (16:9), 25.000 fps, ~ 1560 Kbps (~ 0.218 bit/pixel)
Аудио: 48.0 kHz, AC3, 2/0 ch, 192 kbps
Продолжительность: 8 х ~ 00:44:00
Перевод: Не требуется [Русский]

General
Complete name : D:RazdachiLektor.2011.WEBRip.GeneralFilme01.Lektor.avi
Format : AVI
Format/Info : Audio Video Interleave
File size : 558 MiB
Duration : 44 min 1 s
Overall bit rate : 1 770 kb/s
Writing application : VirtualDubMod 1.5.10.3 | http://www.virtualdub-fr.org || (build 2550/release)
Writing library : VirtualDubMod build 2550/release

Video
ID : 0
Format : MPEG-4 Visual
Format profile : Advanced Simple@L5
Format settings : BVOP1 / Custom Matrix
Format settings, BVOP : 1
Format settings, QPel : No
Format settings, GMC : No warppoints
Format settings, Matrix : Custom
Codec ID : XVID
Codec ID/Hint : XviD
Duration : 44 min 1 s
Bit rate : 1 569 kb/s
Width : 720 pixels
Height : 400 pixels
Display aspect ratio : 16:9
Frame rate : 25.000 FPS
Color space : YUV
Chroma subsampling : 4:2:0
Bit depth : 8 bits
Scan type : Progressive
Compression mode : Lossy
Bits/(Pixel*Frame) : 0.218
Stream size : 494 MiB (89%)
Writing library : XviD 73

Audio
ID : 1
Format : AC-3
Format/Info : Audio Coding 3
Commercial name : Dolby Digital
Codec ID : 2000
Duration : 44 min 1 s
Bit rate mode : Constant
Bit rate : 192 kb/s
Channel(s) : 2 channels
Channel layout : L R
Sampling rate : 48.0 kHz
Frame rate : 31.250 FPS (1536 SPF)
Compression mode : Lossy
Stream size : 60.5 MiB (11%)
Alignment : Split across interleaves
Interleave, duration : 40 ms (1.00 video frame)
Interleave, preload duratio : 500 ms
Service kind : Complete Main

Релиз от:


_________________
Проголосуй за трекер Открытый торрент трекер - RUS-MEDIA.ORG

Проголосуй Открытый торрент трекер - RUS-MEDIA.ORG


Скачать книги и аудио книги через торрент


Вернуться к началу
 Профиль Отправить личное сообщение  
 
   Похожие торренты   Автор   Торрент   Размер 
В этой теме нет новых непрочитанных сообщений. Шифр [01-16 из 16] [Детектив, 2018] WEBRip

salma3

0 | 0

9.95 ГБ

В этой теме нет новых непрочитанных сообщений. Икра [01-08 из 08] [Детектив, 2017] WEBRip

salma3

52 | 17

4.35 ГБ

В этой теме нет новых непрочитанных сообщений. Шифр [01-16 из 16] [Детектив, 2018] WEBRip

salma3

0 | 0

8.71 ГБ

В этой теме нет новых непрочитанных сообщений. Живой [01-16 из 16] [Детектив, 2017] WEBRip

salma3

0 | 0

8.7 ГБ

В этой теме нет новых непрочитанных сообщений. Посольство [01-04 из 04] [Детектив, 2018] WEBRip

salma3

130 | 74

6.38 ГБ

В этой теме нет новых непрочитанных сообщений. Стрекоза [01-04 из 04] [Мелодрама, детектив, 2018] WEBRip

salma3

4 | 3

2.74 ГБ

В этой теме нет новых непрочитанных сообщений. Опасный круиз [01-02 из 02] [Детектив, 2018] WEBRip

salma3

90 | 4

745.86 МБ


Начать новую тему Ответить на тему  [ 1 сообщение ] 




Для Мосгорсуда, Роскомнадзора и рекламодателей:: rstracker[собака]yandex.ru
cron