Торрент файл
скачать торрент магнет ссылка Добавлен: 13 окт 2019, 10:04
Размер: 2.7 ГБ
Сидеров: 6
Личеров: 0
Статус: (salma3)
Автор

СообщениеДобавлено: 13 окт 2019, 10:04 

Не в сети
Супермодератор
Аватара пользователя
Дата регистрации:
15 фев 2012, 16:44
Возраст: 33
Спасибо: 8325 / 2148
Сообщения: 97229
Год выхода: 2019
Жанр: Мелодрама
Режиссер: Виктор Конисевич

В ролях: Ольга Веникова, Кирилл Дыцевич, Анна Ардова, Александр Тютин, Валерия Гуляева, Владимир Захарченко, Анатолий Зиновенко, Таисия Бойко, Александр Данильченко, Леонид Гончар, Селена Жмурко, Юлия Гапчук

О фильме:
Жизнь Саши Рудаковой рушится в одночасье, когда в огне пожара, при подозрительных обстоятельствах погибают его родители. Сашу поддерживает ее жених, и ей кажется, что боль может со временем утихнуть, но жених оказывается слишком слабым и предает Сашу, чтобы не вредить своей карьере. Жизнь дает Саше новый шанс и новую любовь, впрочем, Саша уже не верит никому…

Страна: Украина
Продолжительность: 4 х 00:52:30
Перевод: Не требуется

Файл
Кодек: XviD
Качество: SATRip
Видео: XviD, ~ 1623 Кбит/с, 720x400, 25 кадр/с
Звук: AC3, 2 ch, 192 Кбит/с
Субтитры: Украинские







General
Complete name : C:01.Ищу тебя.(2019).SATRip.by.Nicodem.Files-x.avi
Format : AVI
Format/Info : Audio Video Interleave
File size : 690 MiB
Duration : 52mn 52s
Overall bit rate : 1 825 Kbps
Writing application : VirtualDubMod 1.5.10.3 | http://www.virtualdub-fr.org || (build 2550/release)
Writing library : VirtualDubMod build 2550/release

Video
ID : 0
Format : MPEG-4 Visual
Format profile : Advanced Simple@L5
Format settings, BVOP : 1
Format settings, QPel : No
Format settings, GMC : No warppoints
Format settings, Matrix : Custom
Codec ID : XVID
Codec ID/Hint : XviD
Duration : 52mn 52s
Bit rate : 1 623 Kbps
Width : 720 pixels
Height : 400 pixels
Display aspect ratio : 16:9
Frame rate : 25.000 fps
Color space : YUV
Chroma subsampling : 4:2:0
Bit depth : 8 bits
Scan type : Progressive
Compression mode : Lossy
Bits/(Pixel*Frame) : 0.225
Stream size : 614 MiB (89%)
Writing library : XviD 73

Audio
ID : 1
Format : AC-3
Format/Info : Audio Coding 3
Mode extension : CM (complete main)
Codec ID : 2000
Duration : 52mn 52s
Bit rate mode : Constant
Bit rate : 192 Kbps
Channel(s) : 2 channels
Channel positions : Front: L R
Sampling rate : 48.0 KHz
Bit depth : 16 bits
Compression mode : Lossy
Stream size : 72.6 MiB (11%)
Alignment : Split accross interleaves
Interleave, duration : 40 ms (1.00 video frame)
Interleave, preload duration : 500 ms

Релиз от:


_________________
Проголосуй за трекер Открытый торрент трекер - RUS-MEDIA.ORG

Проголосуй Открытый торрент трекер - RUS-MEDIA.ORG


Вернуться к началу
 Профиль Отправить личное сообщение  
 
   Похожие торренты   Автор   Торрент   Размер 
В этой теме нет новых непрочитанных сообщений. Ты только верь [01-04 из 04] [Мелодрама, 2019] WEB-DLRip

salma3

61 | 9

2.29 ГБ

В этой теме нет новых непрочитанных сообщений. Токсичная любовь [01-02 из 02] [Мелодрама, детектив, 2019] WEBRip

salma3

0 | 0

2.18 ГБ

В этой теме нет новых непрочитанных сообщений. У причала [01-04 из 04] [Мелодрама, детектив, 2019] WEB-DLRip

salma3

0 | 0

2.28 ГБ

В этой теме нет новых непрочитанных сообщений. Конец сезона [Триллер, мелодрама, 2019] WEB-DLRip [iTunes]

salma3

169 | 17

1.46 ГБ

В этой теме нет новых непрочитанных сообщений. За пять минут до января [01-04 из 04] [Комедия, мелодрама, приключения, 2019] WEB-DLRip

salma3

0 | 0

2.18 ГБ

В этой теме нет новых непрочитанных сообщений. Джуди / Judy [Драма, мелодрама, биография, 2019] BDRip, Dub [iTunes]

salma3

1 | 0

1.46 ГБ

В этой теме нет новых непрочитанных сообщений. До Нового года осталось… [Мелодрама, комедия, 2019] WEB-DLRip [iTunes]

salma3

7 | 4

1.37 ГБ


Начать новую тему Ответить на тему  [ 1 сообщение ] 




Для Мосгорсуда, Роскомнадзора и рекламодателей:: rstracker[собака]yandex.ru
cron