Торрент файл
скачать торрент магнет ссылка Добавлен: 12 сен 2019, 23:22
Размер: 38.68 ГБ
Сидеров: 0
Личеров: 0
Статус: (salma3)
Автор

СообщениеДобавлено: 12 сен 2019, 23:22 

Не в сети
Супермодератор
Аватара пользователя
Дата регистрации:
15 фев 2012, 16:44
Возраст: 33
Спасибо: 8325 / 2148
Сообщения: 97229
Год выхода: 2011
Жанр: Фэнтези, Приключения, Драма
Режиссер: Брайан Кирк, Даниэль Минахан, Алан Тейлор, Тимоти Ван Паттен

В ролях: Лина Хиди, Джек Глисон, Шон Бин, Мишель Фэйрли, Эмилия Кларк, Иэн Глен, Джейсон Момоа, Софи Тёрнер, Мэйси Уильямс, Альфи Аллен, Питер Динклэйдж, Николай Костер-Вальдау, Эйдан Гиллен, Кит Харингтон, Ричард Мэдден, Айзек Хэмпстед-Райт, Рори Макканн, Марк Эдди, Гарри Ллойд

Описание: Эддарда (Неда) Старка просят стать Десницей (главным советником) развратного короля Роберта Баратеона. Нед и его жена Кейтилин получают письмо от Лизы Аррен, сестры Кейтилин и вдовы предыдущего Десницы, Джона Аррена. Письмо даёт основание полагать, что причиной смерти Джона Аррена был дом Ланнистеров, к которому принадлежит жена короля Серсея. Нед должен ехать на юг, чтобы помочь королю выяснить, кто убил Джона Аррена, и защитить свою семью от Ланнистеров. Выясняется, что Аррен погиб, пытаясь разоблачить тёмные тайны Ланнистеров. За Узким морем, на континенте Эссос, высокомерный Визерис Таргариен, сын свергнутого короля, считает, что по-прежнему имеет законное право на престол. Он выдаёт свою младшую сестру, Дейенерис Таргариен, которую подвергал психологическому и физическому насилию в течение многих лет, замуж за вождя воинственного племени дотракийцев, кхала Дрого, в обмен на армию, чтобы вернуться в Вестерос и занять Железный трон. Однако растущая любовь Дейенерис к Дрого нарушает планы Визериса.
Внебрачный сын Неда, Джон Сноу, вступает в Ночной Дозор, древнее братство, поклявшееся присматривать за Стеной, которая отделяет Семь Королевств от неизвестной земли за её пределами. Но древняя сила, долгое время считавшаяся мёртвой, угрожает земле.



Производство: США, Великобритания
Продолжительность: 10 серий ~56 мин.
Перевод : Профессиональный (дублированный)

Качество: BDRip-HEVC 1080
Видео: HEVC/H.265, 1920x1080, ~10 Mbps, 10 bit
Аудио 1: AC3, 2 ch, 192 kb/s Дубляж (Kravec)
Аудио 2: AC3, 2 ch, 192 kb/s Дубляж (Ren-TV)
Субтитры: Русские (Forced)


General
Unique ID : 283972143876380214035372019884089976516 (0xD5A30BA79D2CB13713F853BBA8FCA6C4)
Complete name : D:DownloadSeason 01#01 Зима близко.mkv
Format : Matroska
Format version : Version 4
File size : 4.53 GiB
Duration : 1 h 1 min
Overall bit rate : 10.5 Mb/s
Movie name : Зима близко / Winter Is Coming
Encoded date : UTC 2019-09-12 15:28:57
Writing application : mkvmerge v37.0.0 ('Leave It') 64-bit
Writing library : libebml v1.3.9 + libmatroska v1.5.2 / Lavf57.71.100
Cover : Yes
Attachments : Cover 1.jpg
ENCODING_INFO : MATROSKA,WEBM > MKV 1080p 10-bit / H264 > X265 CRF 20.0 Very Slow / AC3 > AC3 CBR 448kbps / DTS > AC3 CBR 448kbps
Video
ID : 1
Format : HEVC
Format/Info : High Efficiency Video Coding
Format profile : Main 10@L4.1@High
Codec ID : V_MPEGH/ISO/HEVC
Duration : 1 h 1 min
Bit rate : 10.1 Mb/s
Width : 1 920 pixels
Height : 1 080 pixels
Display aspect ratio : 16:9
Frame rate mode : Constant
Frame rate : 23.976 (24000/1001) FPS
Color space : YUV
Chroma subsampling : 4:2:0
Bit depth : 10 bits
Bits/(Pixel*Frame) : 0.204
Stream size : 4.36 GiB (96%)
Title : Winter Is Coming
Writing library : x265 2.9+9-f74003e88622:[Windows][GCC 8.2.0][64 bit] 10bit
Encoding settings : cpuid=1111039 / frame-threads=9 / numa-pools=8 / wpp / no-pmode / no-pme / no-psnr / no-ssim / log-level=3 / input-csp=1 / input-res=1920x1080 / interlace=0 / total-frames=0 / level-idc=41 / high-tier=1 / uhd-bd=0 / ref=5 / allow-non-conformance / no-repeat-headers / annexb / no-aud / no-hrd / info / hash=0 / no-temporal-layers / open-gop / min-keyint=24 / keyint=240 / gop-lookahead=0 / bframes=16 / b-adapt=2 / b-pyramid / bframe-bias=0 / rc-lookahead=40 / lookahead-slices=6 / scenecut=40 / radl=0 / no-intra-refresh / ctu=32 / min-cu-size=8 / rect / amp / max-tu-size=32 / tu-inter-depth=1 / tu-intra-depth=1 / limit-tu=0 / rdoq-level=0 / dynamic-rd=0.00 / no-ssim-rd / signhide / no-tskip / nr-intra=0 / nr-inter=0 / no-constrained-intra / no-strong-intra-smoothing / max-merge=5 / limit-refs=3 / no-limit-modes / me=3 / subme=7 / merange=57 / temporal-mvp / weightp / weightb / no-analyze-src-pics / deblock=-3:-3 / no-sao / no-sao-non-deblock / rd=6 / no-early-skip / no-rskip / no-fast-intra / no-tskip-fast / no-cu-lossless / no-b-intra / no-splitrd-skip / rdpenalty=0 / psy-rd=2.00 / psy-rdoq=0.00 / no-rd-refine / no-lossless / cbqpoffs=0 / crqpoffs=0 / rc=crf / crf=20.0 / qcomp=0.60 / qpstep=4 / stats-write=0 / stats-read=0 / vbv-maxrate=50000 / vbv-bufsize=50000 / vbv-init=0.9 / crf-max=0.0 / crf-min=0.0 / ipratio=1.40 / pbratio=1.30 / aq-mode=3 / aq-strength=1.00 / no-cutree / zone-count=0 / no-strict-cbr / qg-size=32 / no-rc-grain / qpmax=69 / qpmin=0 / no-const-vbv / sar=1 / overscan=0 / videoformat=5 / range=0 / colorprim=1 / transfer=1 / colormatrix=1 / chromaloc=0 / display-window=0 / max-cll=0,0 / min-luma=0 / max-luma=1023 / log2-max-poc-lsb=8 / vui-timing-info / vui-hrd-info / slices=1 / no-opt-qp-pps / no-opt-ref-list-length-pps / no-multi-pass-opt-rps / scenecut-bias=0.05 / no-opt-cu-delta-qp / no-aq-motion / no-hdr / no-hdr-opt / no-dhdr10-opt / no-idr-recovery-sei / analysis-reuse-level=5 / scale-factor=0 / refine-intra=0 / refine-inter=0 / refine-mv=0 / no-limit-sao / ctu-info=0 / no-lowpass-dct / refine-mv-type=0 / copy-pic=1 / max-ausize-factor=1.0 / no-dynamic-refine / no-single-sei
Language : English
Default : Yes
Forced : No
Color range : Limited
Color primaries : BT.709
Transfer characteristics : BT.709
Matrix coefficients : BT.709
Audio #1
ID : 2
Format : AC-3
Format/Info : Audio Coding 3
Commercial name : Dolby Digital
Codec ID : A_AC3
Duration : 1 h 1 min
Bit rate mode : Constant
Bit rate : 192 kb/s
Channel(s) : 2 channels
Channel layout : L R
Sampling rate : 48.0 kHz
Frame rate : 31.250 FPS (1536 SPF)
Bit depth : 16 bits
Compression mode : Lossy
Stream size : 84.6 MiB (2%)
Title : Дубляж (Kravec)
Language : Russian
Service kind : Complete Main
Default : Yes
Forced : No
Audio #2
ID : 3
Format : AC-3
Format/Info : Audio Coding 3
Commercial name : Dolby Digital
Codec ID : A_AC3
Duration : 1 h 1 min
Bit rate mode : Constant
Bit rate : 192 kb/s
Channel(s) : 2 channels
Channel layout : L R
Sampling rate : 48.0 kHz
Frame rate : 31.250 FPS (1536 SPF)
Bit depth : 16 bits
Compression mode : Lossy
Stream size : 84.6 MiB (2%)
Title : Дубляж (Ren-TV)
Language : Russian
Service kind : Complete Main
Default : No
Forced : No
Text
ID : 4
Format : ASS
Codec ID : S_TEXT/ASS
Codec ID/Info : Advanced Sub Station Alpha
Duration : 59 min 30 s
Bit rate : 2 b/s
Count of elements : 13
Compression mode : Lossless
Stream size : 1.21 KiB (0%)
Title : Forced
Language : Russian
Default : Yes
Forced : Yes
Menu
00:00:00.000 : :Chapter 1
00:00:06.006 : :Chapter 2
00:07:16.435 : :Chapter 3
00:08:56.534 : :Chapter 4
00:18:14.510 : :Chapter 5
00:28:46.558 : :Chapter 6
00:39:35.581 : :Chapter 7
00:50:00.038 : :Chapter 8
01:00:32.628 : :Chapter 9







Релиз от: NoMaD


_________________
Проголосуй за трекер Открытый торрент трекер - RUS-MEDIA.ORG

Проголосуй Открытый торрент трекер - RUS-MEDIA.ORG


Вернуться к началу
 Профиль Отправить личное сообщение  
 
   Похожие торренты   Автор   Торрент   Размер 
В этой теме нет новых непрочитанных сообщений. Влагалище Кхалиси. Игра престолов и другие XXX пародии порно / Khaleesi's Cunt. A XXX Game Of Thrones Parody And Other Porn Parodies (2016) DVDRip

zorgi

2 | 0

1.46 ГБ

В этой теме нет новых непрочитанных сообщений. Игра на выживание / Game of survival (Сезон 1 , Серия 1-12 из 12)) (Карен Оганесян) [2020, Приключения, триллер, драма , WEB-DLRip - HEVC - 1080p]

Враг Нароода

1 | 1

14.28 ГБ

В этой теме нет новых непрочитанных сообщений. Мерлин / Merlin [S01-05] [Драма, фэнтези, приключения, 2008-2012] BDRip-HEVC 1080p, Mvo

salma3

0 | 0

133.01 ГБ

В этой теме нет новых непрочитанных сообщений. Легенда об Искателе / Legend of the Seeker [S01] [боевик, фэнтези, приключения, 2008] WEBRip-HEVC 1080p, Dub [Пифагор]

salma3

2 | 0

38.55 ГБ

В этой теме нет новых непрочитанных сообщений. Игра в кальмара / Ojingeo geim (Squid Game) (Сезон 1 , Серия 1- 9 из 9 ) (Дон Хёк Хван) [2021, Драма, приключения, боевик ,WEB-DL- HEVC - 1080p] [LostFilm+HDRezka + TVShows +Kor +rEng]+[Subs Rus+Kor +rEng

Враг Нароода

4 | 2

14.2 ГБ

В этой теме нет новых непрочитанных сообщений. Хороший динозавр / The Good Dinosaur [мультфильм, фэнтези, драма, комедия, приключения, семейный, 2015] BDRip-HEVC 1080p, Dub [Лицензия]

K15

10 | 3

6.33 ГБ

В этой теме нет новых непрочитанных сообщений. Наследие Юпитера / Jupiter's Legacy [S01] [2021 г., фантастика, боевик, драма, фэнтези, WEB-DL-HEVC 1080p | HDR] Dub | SDI Media

zorgi

18 | 5

15.36 ГБ


Начать новую тему Ответить на тему  [ 1 сообщение ] 




Для Мосгорсуда, Роскомнадзора и рекламодателей:: rstracker[собака]yandex.ru
cron