Оценка торрента
1 0%  0%  [ 0 ]
2 0%  0%  [ 0 ]
3 0%  0%  [ 0 ]
4 0%  0%  [ 0 ]
5 0%  0%  [ 0 ]
1 0%  0%  [ 0 ]
2 0%  0%  [ 0 ]
3 0%  0%  [ 0 ]
4 0%  0%  [ 0 ]
5 0%  0%  [ 0 ]
Всего голосов : 0
Торрент файл
скачать торрент магнет ссылка Добавлен: 23 май 2011, 20:11
Размер: 16.98 ГБ
Сидеров: 0
Личеров: 4
Статус: (nikk1988)
Автор

СообщениеДобавлено: 23 май 2011, 20:11 

Не в сети
Супермодератор
Аватара пользователя
Дата регистрации:
14 июн 2010, 21:00
Возраст: 28
Спасибо: 1324 / 1
Сообщения: 5644
Откуда: НиНО
Год выпуска: 2011
Производство:"ТНТ-Телесеть"
Жанр:Комедия
Продолжительность: ~ 00:22:00
Субтитры: Отсутствуют
Режиссёр: Максим Пежемский
В ролях: Филипп Котов, Иван Громов, Александр Солдаткин, Алексей Коновалов, Руслан Сасин, Михаил Галустян, Надежда Иванова, Наталья Костенева, Марина Лычкина, Валентин Самохин, Илья Сологуб, Руслан Ягудин, Илья Володин
Описание: Что делать, если ты студент-очкарик, влюбленный в самую красивую девушку в институте?
Как добиться внимания красавицы, если у нее есть красавец с баблом и тачкой?
Можно ли управлять своим либидо, если оно сбежало от тебя еще в шесть лет?
И самое главное - где лечат раздвоение личности?

Саша Зайцев – московский студент. Он похож на миллионы своих сверстников, но при этом очень отличается от окружающих. С одной стороны, у Саши есть очки, вид затюканного ботаника и неразделенная любовь. С другой стороны, у Саши - раздвоение личности. Нет, он не разговаривает сам с собой в шапочке из фольги. Просто если Сашу бьют по голове, он превращается в Федора, подозрительно похожего на актера Михаила Галустяна.

Федор, в отличие от Саши, знает, что делать со своими желаниями - немедленно исполнять! Хочется нахамить соседу? Зажать на вечеринке однокурсницу? Угнать джип? Саша никогда бы на это не решился, если бы в нем периодически не пробуждался Федор. По словам режиссера проекта Максима Пежемского, «Зайцев+1» - это история о том, как от человека сбежало его либидо и живет само по себе: «Мы сняли ситком про пубертатный период студентов, где-то задержавшихся во взрослении, но сексуально озабоченных».

«Зайцев +1» гораздо больше похож на кино, чем на традиционный ситком. В нем нет привычной и обычной для этого жанра откровенной театральности и закадрового смеха. Он снят одной камерой. «Интерны» и «Реальные пацаны» вывели жанр ситкома на новый уровень. «Зайцев+1» продолжает это движение.

Главную роль – роль Саши Зайцева – играет молодой талантливый актер Филипп Котов. Также главную роль играет Михаил Галустян - он тоже Саша, но только тогда, когда тот становится Федором. Попробуем разобраться без психиатра?
Заменена 3-я серия (устранены сторонние надписи)
Качество: DVB
Формат: MPEG
Видео кодек: MPEG2
Аудио кодек: MPEG1 Layer 2
Видео: MPEG2 Video 720x576 (4:3) 25.00fps 4 802 Kbps, 0.463 bit/pixel
Аудио: MPEG Audio 48000Hz stereo 192 Кбит/сек
Релиз:
Сэмпл.
Complete name : F:TORENTRAZDACHIЗайцев+1_DVB_by_CLIPMANЗайцев+1.01_DVB_by_CLIPMAN.mpg
Format : MPEG-PS
File size : 794 MiB
Duration : 21mn 47s
Overall bit rate : 5 096 Kbps
Writing library : (c) 1998-2010 Womble Multimedia, Inc. / MPEG Video Wizard DVD 5.0.0.114 (01/2010) / Apr 20 2010
Video
ID : 224 (0xE0)
Format : MPEG Video
Format version : Version 2
Format profile : Main@Main
Format settings, BVOP : Yes
Format settings, Matrix : Default
Format settings, GOP : M=3, N=30
Duration : 21mn 47s
Bit rate mode : Variable
Bit rate : 4 802 Kbps
Nominal bit rate : 15.0 Mbps
Width : 720 pixels
Height : 576 pixels
Display aspect ratio : 4:3
Frame rate : 25.000 fps
Standard : PAL
Color space : YUV
Chroma subsampling : 4:2:0
Bit depth : 8 bits
Scan type : Progressive
Scan order : Top Field First
Bits/(Pixel*Frame) : 0.463
Stream size : 749 MiB (94%)
Writing library : (c) 1998-2010 Womble Multimedia, Inc. / MPEG Video Wizard DVD 5.0.0.114 (01/2010) / Apr 20 2010
Audio
ID : 192 (0xC0)
Format : MPEG Audio
Format version : Version 1
Format profile : Layer 2
Duration : 21mn 47s
Bit rate mode : Constant
Bit rate : 192 Kbps
Channel(s) : 2 channels
Sampling rate : 48.0 KHz
Stream size : 29.9 MiB (4%)


Добавлены 22-я серия!
Внимание! Раздача ведётся путём добавления новых серий; при каждом добавлении создётся новый торрент. Чтобы начать докачку новой серии, пользователям необходимо сделать следующее:
(1) остановить скачивание,
(2) удалить старый торрент у себя из клиента (старые серии удалять не надо),
(3) скачать новый торрент и запустить его у себя в клиенте вместо старого, при этом указать клиенту путь в старую папку куда и должно происходить скачивание новых серий.
Ваш клиент при этом должен произвести хеширование (проверку) старой папки (если не производит сам - помогите ему сделать это), и будет докачивать только те серии которых у вас ещё нет. Старые серии при этом не удаляются, а продолжают раздаваться!
Eсли вы уже удалили старые серии, то предотвратить повторную закачку старых серий можно, отжав галочку в соответсвующих местах при запуске нового торрента. По возможности, желательно не удалять старые серии как можно дольше чтобы релизёр не столько продолжал раздавать старые серии, а смог сконцентрироваться на новых.



_________________
Избыток пищи мешает тонкости ума (Сенека)



реклама партнёра


Вернуться к началу
 Профиль Отправить личное сообщение  
 
   Похожие торренты   Автор   Торрент   Размер 
В этой теме нет новых непрочитанных сообщений. VA - Тор 100 Зайцев нет (26.11) [2014, Pop, R&B, Dance, Hip-Hop, MP3]

Nickolas3435

1459 | 41

848.27 МБ

В этой теме нет новых непрочитанных сообщений. Сборник - Топ 100 Зайцев.Нет [26.07] [2014, Pop, MP3]

Nickolas3435

2004 | 67

1.12 ГБ

В этой теме нет новых непрочитанных сообщений. VA - Топ 100 Зайцев.нет [Pop, Rock, Rap, 13.11.2013] MP3, 128-320kbps

Dracon

8 | 2

693.98 МБ

В этой теме нет новых непрочитанных сообщений. VA - Top 100 Зайцев нет [Pop, Disco, 2014] MP3, 128-320kbps

Dracon

241 | 11

751.66 МБ

В этой теме нет новых непрочитанных сообщений. VA - Top 100 Зайцев.Нет Cентябрь [2015, Pop, Dance, Club, MP3]

Dracon

4082 | 157

831.59 МБ

В этой теме нет новых непрочитанных сообщений. 14+ (Андрей Зайцев) [мелодрама, 2015] WEB-DL 1080p

Dracon

5951 | 1152

3.89 ГБ

В этой теме нет новых непрочитанных сообщений. Сборник - Топ 100 Зайцев.Нет [2015, Pop, Dance, Club, MP3]

Nickolas3435

421 | 8

893.22 МБ


Начать новую тему Ответить на тему  [ 1 сообщение ] 




Для Мосгорсуда, Роскомнадзора и рекламодателей:: mosgorsud-torrent[собачка]yandex.ru