COVID-19 - Последняя информация о коронавирусе на сайте Минздрава




Торрент файл
скачать торрент магнет ссылка Добавлен: 14 июл 2019, 20:25
Размер: 11.25 ГБ
Сидеров: 0
Личеров: 0
Статус: (salma3)
Автор

СообщениеДобавлено: 14 июл 2019, 20:25 

Не в сети
Супермодератор
Аватара пользователя
Дата регистрации:
15 фев 2012, 16:44
Возраст: 32
Спасибо: 8298 / 2148
Сообщения: 97020
Год выхода: 2008
Жанр: фантастика, драма, криминал
Режиссёр: Майкл Кэтлман, Дарнелл Мартин, Алекс Закржевский

В ролях: Джейсон О’Мара, Майкл Империоли, Гретхен Мол, Джонатан Мерфи, Харви Кейтель, Грег Д’Агостино, Крис Мискевич, Джон Ченатьемпо, Доминик Манчино, Калеб Уоллес

О фильме: Детектив Сэм Тайлер охотится за маньяком Колином Реймсом. Очередной жертвой преступника становится коллега и возлюбленная Сэма Майа, и он готов на все ради ее спасения. Неожиданно Тайлера сбивает автомобиль, а очнувшись, он понимает, что оказался в 1973 году. Здесь он тоже работает в 125-м полицейском участке и расследует дело о серийном убийце. Самое удивительное, что почерк преступника очень похож на методы Реймса…



Страна: США
Продолжительность: ~00:43:00 серия
Перевод: Профессиональный (многоголосый, закадровый) Первый канал

Файл
Качество: WEB-DLRip
Формат: AVI
Видео: 704x400 at 24.000 fps, XviD, ~1999 kbps avg
Аудио: Russian: 48 kHz, AC3, 2/0 (L,R) ch, ~192 kbps
Субтитры: None


***Релиз: teko

General
Complete name : s01e01_Out.Here.in.the.Fields.avi
Format : AVI
Format/Info : Audio Video Interleave
File size : 684 MiB
Duration : 43mn 25s
Overall bit rate : 2 201 Kbps
Writing application : VirtualDubMod 1.5.10.3 | http://www.virtualdub-fr.org || (build 2550/release)
Writing library : VirtualDubMod build 2550/release

Video
ID : 0
Format : MPEG-4 Visual
Format profile : Advanced Simple@L5
Format settings, BVOP : 2
Format settings, QPel : No
Format settings, GMC : No warppoints
Format settings, Matrix : Custom
Codec ID : XVID
Codec ID/Hint : XviD
Duration : 43mn 25s
Bit rate : 2 000 Kbps
Width : 704 pixels
Height : 400 pixels
Display aspect ratio : 16:9
Frame rate : 24.000 fps
Color space : YUV
Chroma subsampling : 4:2:0
Bit depth : 8 bits
Scan type : Progressive
Compression mode : Lossy
Bits/(Pixel*Frame) : 0.296
Stream size : 621 MiB (91%)
Writing library : XviD 73

Audio
ID : 1
Format : AC-3
Format/Info : Audio Coding 3
Mode extension : CM (complete main)
Format settings, Endianness : Big
Codec ID : 2000
Duration : 43mn 25s
Bit rate mode : Constant
Bit rate : 192 Kbps
Channel(s) : 2 channels
Channel positions : Front: L R
Sampling rate : 48.0 KHz
Frame rate : 31.250 fps (1536 spf)
Compression mode : Lossy
Stream size : 59.6 MiB (9%)
Alignment : Split accross interleaves
Interleave, duration : 42 ms (1.00 video frame)
Interleave, preload duratio : 500 ms


_________________
Проголосуй за трекер Открытый торрент трекер - RUS-MEDIA.ORG

Проголосуй Открытый торрент трекер - RUS-MEDIA.ORG


Скачать книги и аудио книги через торрент


Вернуться к началу
 Профиль Отправить личное сообщение  
 
   Похожие торренты   Автор   Торрент   Размер 
В этой теме нет новых непрочитанных сообщений. Карточный Домик / House of Cards [S01-06] [политическая драма, 2013-2018] HDRip, Mvo [Первый канал]

salma3

0 | 0

49.68 ГБ

В этой теме нет новых непрочитанных сообщений. Скандал / Scandal [S01-07] [триллер, драма, 2012-2017] WEB-DLRip, Mvo [Fox Life]

salma3

0 | 0

81.8 ГБ

В этой теме нет новых непрочитанных сообщений. Тайная жизнь / A Hidden Life [военный, биография, история, 2019] WEB-DLRip, Mvo

salma3

0 | 0

1.46 ГБ

В этой теме нет новых непрочитанных сообщений. Тайная жизнь / A Hidden Life [военный, биография, история, 2019] WEB-DLRip, Mvo

salma3

0 | 0

2.18 ГБ

В этой теме нет новых непрочитанных сообщений. Больше чем жизнь / Larger Than Life [Комедия, 1996] WEB-DLRip-AVC, Mvo

salma3

0 | 0

2.32 ГБ

В этой теме нет новых непрочитанных сообщений. Белый воротничок / White Collar [S01] [Драма, детектив, криминал, 2009-2010] WEB-DL 720p, Mvo [Fox Life]

salma3

0 | 0

20.58 ГБ

В этой теме нет новых непрочитанных сообщений. Личная жизнь / Love Life [S01] [Мелодрама, комедия, 2020] WEBRip, Mvo [Kerob]

salma3

0 | 0

3.35 ГБ


Начать новую тему Ответить на тему  [ 1 сообщение ] 




Для Мосгорсуда, Роскомнадзора и рекламодателей:: rstracker[собака]yandex.ru
cron