Торрент файл
скачать торрент магнет ссылка Добавлен: 10 июл 2019, 11:55
Размер: 12.19 ГБ
Сидеров: 0
Личеров: 0
Статус: (salma3)
Автор

СообщениеДобавлено: 10 июл 2019, 11:55 

Не в сети
Супермодератор
Аватара пользователя
Дата регистрации:
15 фев 2012, 16:44
Возраст: 29
Спасибо: 8030 / 2147
Сообщения: 90412
Год выпуска: 2019
Жанр: боевик, комедия, криминал
Режиссеры: Антон Кроппер, Дженис Кук-Леонард, Лекси Александр

В ролях: Джессика Альба, Гэбриэл Юнион, Дуэйн Мартин, Зак Гилфорд, Райан МакПартлин, Софи Рейнольдс, Эрни Хадсон, Лас Алонсо, Ребекка Бьюдиг

Описание: По сюжету Сид Бернетт и Нэнси Маккена, две полицейские из Лос-Анджелеса с непростым прошлым и разными характерами, пытаются примириться друг с другом в качестве напарниц и вместе справиться с самыми опасными преступниками города...



Страна: США
Продолжительность: 13х ~00:45:00
Перевод: Профессиональный (многоголосый, закадровый) [HDRezka, Studio]

Качество: WEBRip 720p
Видео: 1280x720 (16:9), 25.000 fps, MPEG-4 AVC ~2 430 kbps avg
Аудио №1: 48.0 kHz, AC3 Dolby Digital, 2/0 (L,R) ch, ~192 kbps | RUS / HDRezka
Аудио №2: 48.0 kHz, AC3 Dolby Digital, 3/2 (L,C,R,l,r) + LFE ch, ~384 kbps | ENG

General
Уникальный идентификатор : 98325965126588458800576720454256161187 (0x49F8E45DB42F14256FDADD3B3163F1A3)
Полное имя : L.A.s.Finest.S01E01.mkv
Формат : Matroska
Версия формата : Version 4
Размер файла : 964 Мбайт
Продолжительность : 44 м. 47 с.
Режим общего битрейта : Переменный
Общий поток : 3009 Кбит/сек
Дата кодирования : UTC 2019-07-04 09:33:37
Программа кодирования : mkvmerge v33.1.0 ('Primrose') 64-bit
Библиотека кодирования : libebml v1.3.7 + libmatroska v1.5.0

Видео
Идентификатор : 1
Формат : AVC
Формат/Информация : Advanced Video Codec
Профиль формата : Main@L3.1
Настройки формата : CABAC / 2 Ref Frames
Параметр CABAC формата : Да
Параметр RefFrames формата : 2 кадра
Параметр GOP формата : M=3, N=50
Идентификатор кодека : V_MPEG4/ISO/AVC
Продолжительность : 44 м. 47 с.
Вид битрейта : Переменный
Битрейт : 2431 Кбит/сек
Максимальный битрейт : 3600 Кбит/сек
Ширина : 1280 пикселей
Высота : 720 пикселей
Соотношение сторон : 16:9
Режим частоты кадров : Постоянный
Частота кадров : 25,000 кадров/сек
Цветовое пространство : YUV
Субдискретизация насыщенности : 4:2:0
Битовая глубина : 8 бит
Тип развёртки : Прогрессивная
Бит/(Пиксели*Кадры) : 0.106
Размер потока : 779 Мбайт (81%)
Default : Да
Forced : Нет

Аудио #1
Идентификатор : 2
Формат : AC-3
Формат/Информация : Audio Coding 3
Коммерческое название : Dolby Digital
Идентификатор кодека : A_AC3
Продолжительность : 44 м. 47 с.
Вид битрейта : Постоянный
Битрейт : 192 Кбит/сек
Каналы : 2 канала
Channel layout : L R
Частота : 48,0 КГц
Частота кадров : 31,250 кадров/сек (1536 SPF)
Битовая глубина : 16 бит
Метод сжатия : С потерями
Размер потока : 61,5 Мбайт (6%)
Заголовок : HDrezka Studio
Язык : Russian
Default : Да
Forced : Нет

Аудио #2
Идентификатор : 3
Формат : AC-3
Формат/Информация : Audio Coding 3
Коммерческое название : Dolby Digital
Идентификатор кодека : A_AC3
Продолжительность : 44 м. 47 с.
Вид битрейта : Постоянный
Битрейт : 384 Кбит/сек
Каналы : 6 каналов
Channel layout : L R C LFE Ls Rs
Частота : 48,0 КГц
Частота кадров : 31,250 кадров/сек (1536 SPF)
Битовая глубина : 16 бит
Метод сжатия : С потерями
Размер потока : 123 Мбайт (13%)
Заголовок : Original english
Язык : English
Default : Нет
Forced : Нет


_________________
Проголосуй за трекер Открытый торрент трекер - RUS-MEDIA.ORG

Проголосуй Открытый торрент трекер - RUS-MEDIA.ORG


Вернуться к началу
 Профиль Отправить личное сообщение  
 
   Похожие торренты   Автор   Торрент   Размер 
В этой теме нет новых непрочитанных сообщений. Лучшие в Лос-Анджелесе / L.A.'s Finest [01x01 из 13] [боевик, комедия, криминал, 2019] WEBRip 720p, Dvo [Gears Media]

salma3

0 | 0

1.42 ГБ

В этой теме нет новых непрочитанных сообщений. Лучшие в Лос-Анджелесе / L.A.'s Finest [01x07 из 13] [боевик, комедия, криминал, 2019] WEBRip, Dvo [Gears Media]

salma3

0 | 0

3.59 ГБ

В этой теме нет новых непрочитанных сообщений. Мститель / Revenger / Ribenjyeo [боевик, криминал, 2019] WEBRip 720p, Dvo

salma3

37 | 0

2.21 ГБ

В этой теме нет новых непрочитанных сообщений. Полярный / Polar [Боевик, криминал, 2019] WEBRip 720p, Dvo [LakeFilms]

salma3

0 | 0

3.16 ГБ

В этой теме нет новых непрочитанных сообщений. Черный список / The Blacklist [06x19 из 22] [Драма, криминал, боевик, 2019] WEBRip 720p, Mvo [GostFilm]

salma3

0 | 0

24.12 ГБ

В этой теме нет новых непрочитанных сообщений. Уловка-22 / Catch-22 [S01] [Драма, комедия, криминал, 2019] WEBRip 720p, Dvo [Kerob]

salma3

124 | 41

7.59 ГБ

В этой теме нет новых непрочитанных сообщений. Джессика Джонс / Jessica Jones [03х01-08 из 13] [Боевик, драма, криминал, фантастика, 2019] WEBRip 720p, Mvo [BigSinema]

OLEG270877

1 | 0

12.15 ГБ


Начать новую тему Ответить на тему  [ 1 сообщение ] 




Для Мосгорсуда, Роскомнадзора и рекламодателей:: mosgorsud-torrent[собачка]yandex.ru
cron