COVID-19 - Последняя информация о коронавирусе на сайте Минздрава




Торрент файл
скачать торрент магнет ссылка Добавлен: 04 июл 2019, 11:22
Размер: 22.16 ГБ
Сидеров: 0
Личеров: 0
Статус: (salma3)
Автор

СообщениеДобавлено: 04 июл 2019, 11:22 

Не в сети
Супермодератор
Аватара пользователя
Дата регистрации:
15 фев 2012, 16:44
Возраст: 31
Спасибо: 8283 / 2148
Сообщения: 96785
Год выпуска: 2019
Жанр: боевик, приключения
Режиссеры: Гай Норман Би, Стив Бойум, Холли Дэйл

В ролях: Мэтт Барр, София Пернас, Катя Винтер, Джеймс Кэллис, Антонио Цупо, Одед Фер, Марк Джальярди, Тони Нэш, Алисия Коппола, Майкл Дж. Шоу

Описание: Эксперт по античности Дэнни Макнамара и воровка произведений искусства Лекси объединяются, чтобы выследить и поймать террориста, который финансирует свою деятельность, продавая украденные исторические артефакты...



Страна: США
Продолжительность: х ~00:40:00
Перевод: Профессиональный (многоголосый, закадровый) | TVShows

Качество: WEB-DL 1080p
Видео: 1920x1080 (16:9), 24.000 fps, MPEG-4 AVC ~9 126 kbps avg
Аудио №1: 48.0 kHz, AC3 Dolby Digital, 3/2 (L,C,R,l,r) + LFE ch, ~384 kbps | RUS /
Аудио №2: 48.0 kHz, Enhanced Audio Coding 3, 3/2 (L,C,R,l,r) + LFE ch, ~640 kbps |
Субтитры: английские
Формат субтитров: UTF-8 Plain Text

General
Unique ID : 214894504946917099150200069853475162180 (0xA1AB2D1B30EE85A1E85544FEF41EC844)
Complete name : Blood.And.Treasure.S01E03.1080p.TVShows.mkv
Format : Matroska
Format version : Version 4 / Version 2
File size : 2.82 GiB
Duration : 39 min 46 s
Overall bit rate : 10.2 Mb/s
Encoded date : UTC 2019-06-02 07:32:45
Writing application : mkvmerge v33.1.0 ('Primrose') 64-bit
Writing library : libebml v1.3.7 + libmatroska v1.5.0

Video
ID : 1
Format : AVC
Format/Info : Advanced Video Codec
Format profile : High@L4
Format settings : CABAC / 4 Ref Frames
Format settings, CABAC : Yes
Format settings, ReFrames : 4 frames
Codec ID : V_MPEG4/ISO/AVC
Duration : 39 min 46 s
Bit rate : 9 126 kb/s
Width : 1 920 pixels
Height : 1 080 pixels
Display aspect ratio : 16:9
Frame rate mode : Constant
Frame rate : 24.000 FPS
Color space : YUV
Chroma subsampling : 4:2:0
Bit depth : 8 bits
Scan type : Progressive
Bits/(Pixel*Frame) : 0.183
Stream size : 2.54 GiB (90%)
Default : Yes
Forced : No
Color range : Limited
Color primaries : BT.709
Transfer characteristics : BT.709
Matrix coefficients : BT.709

Audio #1
ID : 2
Format : AC-3
Format/Info : Audio Coding 3
Codec ID : A_AC3
Duration : 39 min 46 s
Bit rate mode : Constant
Bit rate : 384 kb/s
Channel(s) : 6 channels
Channel positions : Front: L C R, Side: L R, LFE
Sampling rate : 48.0 kHz
Frame rate : 31.250 FPS (1536 SPF)
Bit depth : 16 bits
Compression mode : Lossy
Stream size : 109 MiB (4%)
Title : TVShows
Language : Russian
Service kind : Complete Main
Default : Yes
Forced : Yes

Audio #2
ID : 3
Format : E-AC-3
Format/Info : Enhanced Audio Coding 3
Codec ID : A_EAC3
Duration : 39 min 46 s
Bit rate mode : Constant
Bit rate : 640 kb/s
Channel(s) : 6 channels
Channel positions : Front: L C R, Side: L R, LFE
Sampling rate : 48.0 kHz
Frame rate : 187.500 FPS (256 SPF)
Compression mode : Lossy
Stream size : 182 MiB (6%)
Title : Original
Language : English
Service kind : Complete Main
Default : No
Forced : No

Text
ID : 4
Format : UTF-8
Codec ID : S_TEXT/UTF8
Codec ID/Info : UTF-8 Plain Text
Duration : 39 min 6 s
Bit rate : 81 b/s
Count of elements : 767
Stream size : 23.4 KiB (0%)
Title : English
Language : English
Default : No
Forced : No


_________________
Проголосуй за трекер Открытый торрент трекер - RUS-MEDIA.ORG

Проголосуй Открытый торрент трекер - RUS-MEDIA.ORG


Скачать книги и аудио книги через торрент


Вернуться к началу
 Профиль Отправить личное сообщение  
 
   Похожие торренты   Автор   Торрент   Размер 
В этой теме нет новых непрочитанных сообщений. Кровь и сокровища / Blood & Treasure [01х01-07 из 13] [боевик, приключения, 2019] WEB-DL 720p, Mvo [TVShows]

salma3

0 | 0

8.82 ГБ

В этой теме нет новых непрочитанных сообщений. Кровь и сокровища / Blood & Treasure [S01] [Боевик, приключения, 2019] WEBRip 1080p, Mvo [Profix Media]

Haint

9 | 0

24.3 ГБ

В этой теме нет новых непрочитанных сообщений. Кровь и сокровища / Blood and Treasure [S01] [Боевик, приключения, 2019] WEB-DLRip, Dvo [TUMBLER Studio]

salma3

0 | 0

8.13 ГБ

В этой теме нет новых непрочитанных сообщений. Кровь и сокровища / Blood & Treasure [S01] [Боевик, приключения, 2019] WEBRip, Mvo [Profix Media]

Haint

64 | 70

6.41 ГБ

В этой теме нет новых непрочитанных сообщений. Кровь и сокровища / Blood & Treasure [S01] [Боевик, приключения, 2019] WEBRip 720p, Mvo [Profix Media]

Haint

7 | 0

12.31 ГБ

В этой теме нет новых непрочитанных сообщений. Кровь и сокровища / Blood & Treasure [S01] [Боевик, приключения, 2019] WEBRip, Dvo [Kerob]

salma3

1 | 2

6.08 ГБ

В этой теме нет новых непрочитанных сообщений. Пандора / Pandora [01х01-11 из 13] [фантастика, боевик, драма, 2019] WEB-DL 1080p, Mvo [TVShows]

salma3

0 | 0

31.73 ГБ


Начать новую тему Ответить на тему  [ 1 сообщение ] 




Для Мосгорсуда, Роскомнадзора и рекламодателей:: rstracker[собака]yandex.ru
cron