COVID-19 - Последняя информация о коронавирусе на сайте Минздрава




Торрент файл
скачать торрент магнет ссылка Добавлен: 29 июн 2019, 11:17
Размер: 16.43 ГБ
Сидеров: 2
Личеров: 2
Статус: (salma3)
Автор

СообщениеДобавлено: 29 июн 2019, 11:17 

Не в сети
Супермодератор
Аватара пользователя
Дата регистрации:
15 фев 2012, 16:44
Возраст: 32
Спасибо: 8304 / 2148
Сообщения: 97085
Год выхода: 1966-67
Жанр: боевик, комедия, криминал
Режиссер: Эрл Беллами, Пол Уэндкос, Кристиан Ниби, Альф Кьеллин, Ричард Сарафьян

В ролях: Роберт Калп, Билл Косби, Ларри Тор, Виктор Сен Юнг, Роберт Доннер, Джон Хойт, Кеннет Тоби, Артур Батанидес, Франс Нуйен, Джеймс Хонг, Шелдон Леонард, Харольд Стоун, Роджер С. Кармел, Ако, Кит Эндес, Рой Дженсон, Стелла Гарсиа, Роберт Паттен, Аллен Юнг, Том Пейс, Юки Шимода, Ларри Дюран...

О фильме:
Популярный телесериал о двух секретных агентах, которые действуют под видом теннисиста-профессионала и его тренера (Роберт Калп и Билл Косби). Они сталкиваются то с террористами, то с КГБ, то с наркомафией, то еще бог весть с кем, но всегда, разумеется, побеждают.



Страна: США
Продолжительность: 00:50:00
Перевод: Авторский (одноголосый закадровый) Алексей Багичев

Файл
Формат видео: AVI
Качество: DVDRip
Видео: XviD, 656x480, 23.976 fps, 1422 Kbps, 8 bits
Звук: AC-3, 48 KHz, 192 Kbps, 2 channels

Семпл

General
Complete name : Я – шпион - I Spy [S2]I_SPY_s02_e01_So Coldly Sweet.ru.avi
Format : AVI
Format/Info : Audio Video Interleave
File size : 589 MiB
Duration : 50mn 46s
Overall bit rate : 1 623 Kbps
Writing application : VirtualDubMod 1.5.10.2 (build 2540/release)
Writing library : VirtualDubMod build 2540/release

Video
ID : 0
Format : MPEG-4 Visual
Format profile : Advanced Simple@L5
Format settings, BVOP : 2
Format settings, QPel : No
Format settings, GMC : No warppoints
Format settings, Matrix : Default (H.263)
Codec ID : XVID
Codec ID/Hint : XviD
Duration : 50mn 46s
Bit rate : 1 422 Kbps
Width : 656 pixels
Height : 480 pixels
Display aspect ratio : 4:3
Frame rate : 23.976 fps
Color space : YUV
Chroma subsampling : 4:2:0
Bit depth : 8 bits
Scan type : Progressive
Compression mode : Lossy
Bits/(Pixel*Frame) : 0.188
Stream size : 516 MiB (88%)
Writing library : XviD 67

Audio
ID : 1
Format : AC-3
Format/Info : Audio Coding 3
Mode extension : CM (complete main)
Format settings, Endianness : Big
Codec ID : 2000
Duration : 50mn 46s
Bit rate mode : Constant
Bit rate : 192 Kbps
Channel(s) : 2 channels
Channel positions : Front: L R
Sampling rate : 48.0 KHz
Compression mode : Lossy
Stream size : 69.7 MiB (12%)
Alignment : Split accross interleaves
Interleave, duration : 42 ms (1.00 video frame)
Interleave, preload duration : 500 ms


_________________
Проголосуй за трекер Открытый торрент трекер - RUS-MEDIA.ORG

Проголосуй Открытый торрент трекер - RUS-MEDIA.ORG


Скачать книги и аудио книги через торрент


Вернуться к началу
 Профиль Отправить личное сообщение  
 
   Похожие торренты   Автор   Торрент   Размер 
В этой теме нет новых непрочитанных сообщений. Я – шпион / I Spy [s01] [боевик, комедия, криминал, 1965-66] DVDRip, Avo

salma3

4 | 15

16.61 ГБ

В этой теме нет новых непрочитанных сообщений. Мой шпион / My Spy (Питер Сигал) [2020 г., боевик, комедия, семейный, BDRip 1080p] | L2

zorgi

22 | 0

8.74 ГБ

В этой теме нет новых непрочитанных сообщений. Случайный шпион / Dak miu mai shing / The Accidental Spy [боевик, триллер, комедия, 2001] HDRip, Mvo

salma3

0 | 0

1.46 ГБ

В этой теме нет новых непрочитанных сообщений. Шпион / The Spy [S01] [Драма, история, 2019] WEB-DLRip, Dub [Невафильм]

salma3

0 | 1

5.82 ГБ

В этой теме нет новых непрочитанных сообщений. Шпион / The Spy [S01] [Драма, история, 2019] WEB-DL 720p, Dub [Невафильм]

salma3

3 | 0

8.15 ГБ

В этой теме нет новых непрочитанных сообщений. Шпион пошёл на Север / The Spy Gone North / Gongjak [Триллер, драма, 2018] BDRip, Mvo

salma3

295 | 21

1.46 ГБ

В этой теме нет новых непрочитанных сообщений. Шпион пошёл на Север / The Spy Gone North / Gongjak [Триллер, драма, 2018] BDRip, Mvo

salma3

0 | 0

2.19 ГБ


Начать новую тему Ответить на тему  [ 1 сообщение ] 




Для Мосгорсуда, Роскомнадзора и рекламодателей:: rstracker[собака]yandex.ru
cron