Оценка торрента
4 0%  0%  [ 0 ]
2 0%  0%  [ 0 ]
1 0%  0%  [ 0 ]
2 0%  0%  [ 0 ]
1 0%  0%  [ 0 ]
4 0%  0%  [ 0 ]
2 0%  0%  [ 0 ]
1 0%  0%  [ 0 ]
2 0%  0%  [ 0 ]
1 0%  0%  [ 0 ]
Всего голосов : 0
Торрент файл
скачать торрент магнет ссылка Добавлен: 07 май 2011, 15:44
Размер: 3.64 ГБ
Сидеров: 2
Личеров: 2
Статус: (nikk1988)
Автор

СообщениеДобавлено: 07 май 2011, 15:44 

Не в сети
Аватара пользователя
Дата регистрации:
24 дек 2010, 18:42
Возраст: 25
Спасибо: 80 / 6
Сообщения: 299
Откуда: Астрахань
Необычная семья / No Ordinary Family



Год выпуска: 2010
Страна: США
Жанр: Комедия
Продолжительность: ~ 45 мин серия
Перевод: Профессиональный многоголосый закадровый(Fox Life)
Субтитры: нет
Режиссёр: Грег Берланти, Джон Фелдман

В ролях:
Майкл Чиклис(Джим Пауэлл), Джули Бенц (Стефани Пауэлл), Джимми Беннетт (Джей Джей Пауэлл), , Кэй Панабэйкер (Дафни Пауэлл), Отем Ризер (Кэти Эндрюс), Романи Малко (Джордж Клауд)
Описание:
Джим работает в полиции, однако он всего лишь составляет словесные портреты. Его жена Стефани, наоборот, успешный и блестящий ученый. Несмотря на то, что они все еще любят друг друга, былая искра в их отношениях уже давно потеряна. Однако все меняется когда Стефани, Джим и их двое детей отправляются в исследовательскую поездку на Амазонку, где их семейный самолет упал в болотистую реку. Сами они спаслись, однако их пилоту, к сожалению, повезло меньше. По возвращении к прежней жизни они с удивлением обнаружили, что теперь обладают экстраординарными способностями. Джиму досталась суперсила с бонусом в виде удивительных рефлексов.
Стефани может развивать молниеносную скорость. Дафни слышит мысли окружающих, включая своего 16-летнего бойфренда. Джей Джей, никогда не отличавшийся умом, удивительным образом превратился в гения. Новые способности, несомненно, воодушевили Пауэллов, однако они скоро понимают, что самые трудные задачи могут быть самыми обычными. Конечно, они могут бороться с преступниками, но никакие суперспособности в мире не смогут исправить эмоциональные проблемы.

Качество: WEB-DLRip
Формат: AVI
Видео кодек: XviD
Аудио кодек: AC3
Видео: 720x400 (1.80:1), 23.976 fps, XviD build 50 ~1999 kbps avg, 0.29 bit/pixel
Аудио Rus: 48 kHz, AC3 Dolby Digital, 2/0 (L,R) ch, ~192 kbps
Аудио Eng: 48 kHz, AC3 Dolby Digital, 2/0 (L,R) ch, ~192 kbps



MI

General

Complete name : H:\Фтп 3\Сериалы\Необычная семья(No Ordinary Family)\No Ordinary Family Season 1\No.Ordinary.Family.s01e01.rus.eng.avi
Format : AVI
Format/Info : Audio Video Interleave
File size : 753 MiB
Duration : 43mn 53s
Overall bit rate : 2 398 Kbps
Writing application : VirtualDubMod 1.5.10.2 (build 2540/release)
Writing library : VirtualDubMod build 2540/release
Video
ID : 0
Format : MPEG-4 Visual
Format profile : Advanced Simple@L5
Format settings, BVOP : Yes
Format settings, QPel : No
Format settings, GMC : No warppoints
Format settings, Matrix : Default (MPEG)
Codec ID : XVID
Codec ID/Hint : XviD
Duration : 43mn 53s
Bit rate : 2 000 Kbps
Width : 720 pixels
Height : 400 pixels
Display aspect ratio : 16:9
Frame rate : 23.976 fps
Color space : YUV
Chroma subsampling : 4:2:0
Bit depth : 8 bits
Scan type : Progressive
Bits/(Pixel*Frame) : 0.290
Stream size : 628 MiB (83%)
Writing library : XviD 1.2.1 (UTC 2008-12-04)
Audio #1
ID : 1
Format : AC-3
Format/Info : Audio Coding 3
Mode extension : CM (complete main)
Codec ID : 2000
Duration : 43mn 53s
Bit rate mode : Constant
Bit rate : 192 Kbps
Channel(s) : 2 channels
Channel positions : Front: L R
Sampling rate : 48.0 KHz
Bit depth : 16 bits
Stream size : 60.3 MiB (8%)
Alignment : Split accross interleaves
Interleave, duration : 42 ms (1.00 video frame)
Interleave, preload duration : 500 ms
Audio #2
ID : 2
Format : AC-3
Format/Info : Audio Coding 3
Mode extension : CM (complete main)
Codec ID : 2000
Duration : 43mn 53s
Bit rate mode : Constant
Bit rate : 192 Kbps
Channel(s) : 2 channels
Channel positions : Front: L R
Sampling rate : 48.0 KHz
Bit depth : 16 bits
Stream size : 60.3 MiB (8%)
Alignment : Split accross interleaves
Interleave, duration : 42 ms (1.00 video frame)
Interleave, preload duration : 500 ms
Список серий
    Пилот(Pilot)
    Необычный Брак(No Ordinary Marriage)
    Необычное Кольцо(No Ordinary Ring)
    Необычный Линчеватель(No Ordinary Vigilante)
    Необычное Землетрясение(No Ordinary Quake)
    Необычные поситители(No Ordinary Visitors)
    Необычный Бандит(No Ordinary Mobster)
    Необычный Бандит(No Ordinary Accident)
    Необычная Годовщина(No Ordinary Anniversary)
    Необычный Кореш(No Ordinary Sidekick)
    Необычные друзья(No Ordinary Friends)
    Необычный брат(No Ordinary Brother)
    Необычный арест(No Ordinary Detention)
    Необычный двойной стандарт(No Ordinary Double Standard)
    Необычный Пауэлл(No Ordinary Powell)
    Необычное предложение(No Ordinary Proposal)
    Необычная любовь(No Ordinary Love)
  • Необычный зверь(No Ordinary Animal)
Скриншоты
Внимание! Раздача ведётся путём добавления новых серий!
Внимание! Раздача ведётся путём добавления новых серий; при каждом добавлении создётся новый торрент. Чтобы начать докачку новой серии, пользователям необходимо сделать следующее: (1) остановить скачивание, (2) удалить старый торрент у себя из клиента (старые серии удалять не надо), (3) скачать новый торрент и запустить его у себя в клиенте вместо старого, при этом указать клиенту путь в старую папку куда и должно происходить скачивание новых серий.
Ваш клиент при этом должен произвести хеширование (проверку) старой папки (если не производит сам - помогите ему сделать это), и будет докачивать только те серии которых у вас ещё нет. Старые серии при этом не удаляются, а продолжают раздаваться!
Eсли вы уже удалили старые серии, то предотвратить повторную закачку старых серий можно, отжав галочку в соответсвующих местах при запуске нового торрента.
Как закачать отдельный файл из торрента или докачать ранее пропущенные файлы торрента!


_________________
Понравился релиз? Не забудь сказать спасибо!
Фан-сайт сериала "Спартак" / Форум фан-сайта сериала "Спартак"
ICQ: 8758899
E-Mail: ygo.admin@gmail.com
О нас думают плохо лишь те, кто хуже нас, а те кто лучше нас... Им просто не до нас © Омар Хайям



реклама партнёра


Вернуться к началу
 Профиль Отправить личное сообщение  
 
   Похожие торренты   Автор   Торрент   Размер 
В этой теме нет новых непрочитанных сообщений. Семья благодарения / A Family Thanksgiving [фантастика, мелодрама, комедия, 2010] HDTVRip, Mvo

salma3

44 | 20

1.37 ГБ

В этой теме нет новых непрочитанных сообщений. Семья / The Family [01х09 из 13] [драма, детектив, 2016] WEB-DLRip, Mvo [BaiBaKo]

salma3

17 | 4

5.1 ГБ

В этой теме нет новых непрочитанных сообщений. Орвилл / The Orville [2017] (Сезон 1 , Серия 1- 8 из 13) (Брэннон Брага, Джон Кассар) [Фантастика, драма, комедия , WEB-DLRip][400p][LostFilm+AlexFilm+NewStudiо+Jaskier+ OMSKBIRD+BaibaKo+Kubik V Kube+Eng]+[Subs ENG]

Враг Нароода

0 | 0

13.22 ГБ

В этой теме нет новых непрочитанных сообщений. Слепое пятно / Blindspot [01х01-08 из 23] (Сара Шечтер, Грег Берланти, Мартин Джеро) [2015, Детектив, Драма, Криминал, WEB-DL 720p | NewStudio]

Dracon

8 | 16

11.3 ГБ

В этой теме нет новых непрочитанных сообщений. Менее привычная жизнь / A Life Less Ordinary [фэнтези, драма, мелодрама, комедия, криминал, 1997] BDRip 720p, Mvo

salma3

63 | 31

4.53 ГБ

В этой теме нет новых непрочитанных сообщений. Американская семейка / Modern Family / 8 сезон 1-22 серии из 22 [комедия, 2016-2017] WEB-DLRip, Mvo [LostFilm]

salma3

13 | 14

6.97 ГБ

В этой теме нет новых непрочитанных сообщений. Гриффины (14 сезон: 1-20 серии из 20) / Family Guy [2015, Мультсериал, Комедия, Пародия, WEB-DLRip, Профессиональный (многоголосый, закадровый) - Jaskier]

marya111

54 | 44

5.72 ГБ


Начать новую тему Ответить на тему  [ 1 сообщение ] 




Для Мосгорсуда, Роскомнадзора и рекламодателей:: mosgorsud-torrent[собачка]yandex.ru