Торрент файл
скачать торрент магнет ссылка Добавлен: 16 апр 2019, 10:56
Размер: 22.5 ГБ
Сидеров: 0
Личеров: 0
Статус: (salma3)
Автор

СообщениеДобавлено: 16 апр 2019, 10:56 

Не в сети
Супермодератор
Аватара пользователя
Дата регистрации:
15 фев 2012, 16:44
Возраст: 30
Спасибо: 8112 / 2147
Сообщения: 93555
Год выпуска: 2019
Жанр: комедия
Режиссер: Грегг Араки

В ролях: Эван Джогиа, Келли Бёрглунд, Бо Мирчофф, Роксана Мескида, Тайлер Пози, Десмонд Чайм, Ивэн Харт Брюс, Тейлор Герард Харт

Описание: Лос-Анджелес, где живут Улисс и его друзья, пытаясь добиться славы, секса и любви. Они заняты неустанными поисками себя, исследованием творчества и собственной сексуальности. Но в безумном водовороте жизни Улисс начинает подозревать, что мир вокруг — часть заговора. Или ему просто пора завязывать с травкой...



Страна: США
Продолжительность: 10х ~00:30:00
Перевод: Профессиональный (многоголосый, закадровый) | TVShows

Качество: WEB-DL 1080p
Видео: 1920x1080 (16:9), 23.976 fps, MPEG-4 AVC ~10.0 Мbps avg
Аудио1: 48.0 kHz, AC3 Dolby Digital, 3/2 (L,C,R,l,r) + LFE ch, ~384 kbps | RUS /
Аудио2: 48.0 kHz, Enhanced Audio Coding 3, 3/2 (L,C,R,l,r) + LFE ch, ~640 kbps | ENG
Субтитры: английские
Формат субтитров: UTF-8 Plain Text

General
Уникальный идентификатор : 35436215418164263514976307963036580076 (0x1AA8C44F8EDE28C348B32D8AF15638EC)
Полное имя : Now.Apocalypse.S01E01.1080p.TVShows.mkv
Формат : Matroska
Версия формата : Version 4 / Version 2
Размер файла : 2,21 Гбайт
Продолжительность : 29 м. 38 с.
Общий поток : 10,7 Мбит/сек
Дата кодирования : UTC 2019-03-17 08:00:13
Программа кодирования : mkvmerge v31.0.0 ('Dolores In A Shoestand') 64-bit
Библиотека кодирования : libebml v1.3.6 + libmatroska v1.4.9

Видео
Идентификатор : 1
Формат : AVC
Формат/Информация : Advanced Video Codec
Профиль формата : High@L4
Параметр CABAC формата : Да
Параметр ReFrames формата : 4 кадра
Идентификатор кодека : V_MPEG4/ISO/AVC
Продолжительность : 29 м. 36 с.
Вид битрейта : Постоянный
Битрейт : 10000 Кбит/сек
Ширина : 1920 пикселей
Высота : 1080 пикселей
Соотношение сторон : 16:9
Режим частоты кадров : Постоянный
Частота кадров : 23,976 (23976/1000) кадра/сек
Частота кадров в оригинале : 23,976 (24000/1001) кадра/сек
Цветовое пространство : YUV
Субдискретизация насыщенности : 4:2:0
Битовая глубина : 8 бит
Тип развёртки : Прогрессивная
Бит/(Пиксели*Кадры) : 0.201
Размер потока : 2,00 Гбайт (90%)
Default : Да
Forced : Нет
Цветовой диапазон : Limited
Основные цвета : BT.709
Характеристики трансфера : BT.709
Коэффициенты матрицы : BT.709

Аудио #1
Идентификатор : 2
Формат : AC-3
Формат/Информация : Audio Coding 3
Параметр Endianness формата : Big
Идентификатор кодека : A_AC3
Продолжительность : 29 м. 38 с.
Вид битрейта : Постоянный
Битрейт : 384 Кбит/сек
Каналы : 6 каналов
Расположение каналов : Front: L C R, Side: L R, LFE
Частота : 48,0 КГц
Частота кадров : 31,250 кадров/сек (1536 spf)
Битовая глубина : 16 бит
Метод сжатия : С потерями
Задержка видео : -2 с. 14 мс.
Размер потока : 81,4 Мбайт (4%)
Заголовок : TVShows
Язык : Russian
Default : Да
Forced : Да

Аудио #2
Идентификатор : 3
Формат : E-AC-3
Формат/Информация : Enhanced Audio Coding 3
Параметр Endianness формата : Big
Идентификатор кодека : A_EAC3
Продолжительность : 29 м. 38 с.
Вид битрейта : Постоянный
Битрейт : 640 Кбит/сек
Каналы : 6 каналов
Расположение каналов : Front: L C R, Side: L R, LFE
Частота : 48,0 КГц
Частота кадров : 187,500 кадров/сек (256 spf)
Метод сжатия : С потерями
Задержка видео : -2 с. 14 мс.
Размер потока : 136 Мбайт (6%)
Заголовок : Original
Язык : English
Default : Нет
Forced : Нет

Текст
Идентификатор : 4
Формат : UTF-8
Идентификатор кодека : S_TEXT/UTF8
Идентификатор кодека/Информация : UTF-8 Plain Text
Продолжительность : 29 м. 27 с.
Битрейт : 76 бит/сек
ElementCount : 561
Размер потока : 16,5 Кбайт (0%)
Заголовок : English
Язык : English
Default : Нет
Forced : Нет


_________________
Проголосуй за трекер Открытый торрент трекер - RUS-MEDIA.ORG

Проголосуй Открытый торрент трекер - RUS-MEDIA.ORG


Книжный торрент трекер



Вернуться к началу
 Профиль Отправить личное сообщение  
 
   Похожие торренты   Автор   Торрент   Размер 
В этой теме нет новых непрочитанных сообщений. Майянцы / Mayans M.C. [S01-02] [триллер, драма, криминал, 2018-2019] WEB-DL 720p, Mvo [TVShows]

K15

0 | 0

23.27 ГБ

В этой теме нет новых непрочитанных сообщений. Бедлам / Bedlam [S01] [ужасы, драма, детектив, 2011] WEB-DL 720p, Mvo [TVShows]

K15

0 | 2

8.66 ГБ

В этой теме нет новых непрочитанных сообщений. Миллион мелочей / A Million Little Things [02х01-02 из 19] [драма, мелодрама, комедия, детектив, 2019] WEB-DL 1080p, Mvo [TVShows]

K15

0 | 2

5.66 ГБ

В этой теме нет новых непрочитанных сообщений. Пандора / Pandora [01х01-11 из 13] [фантастика, боевик, драма, 2019] WEB-DL 1080p, Mvo [TVShows]

salma3

0 | 0

31.73 ГБ

В этой теме нет новых непрочитанных сообщений. Пенниуорт / Pennyworth [S01] [боевик, драма, криминал, 2019] WEB-DL 720p, Mvo [LostFilm]

salma3

1 | 0

15.25 ГБ

В этой теме нет новых непрочитанных сообщений. Рассказ служанки / The Handmaid's Tale [S01-03] [Фантастика, триллер, драма, 2017-2019] HDRip, WEB-DLRip, Mvo [LostFilm]

salma3

0 | 3

24.16 ГБ

В этой теме нет новых непрочитанных сообщений. Полиция Чикаго / Chicago P.D. [07x01-02 из 22] [Боевик, драма, 2019] WEB-DLRip, Mvo [TVShows]

salma3

4 | 0

1.13 ГБ


Начать новую тему Ответить на тему  [ 1 сообщение ] 




Для Мосгорсуда, Роскомнадзора и рекламодателей:: mosgorsud-torrent[собачка]yandex.ru
cron