COVID-19 - Последняя информация о коронавирусе на сайте Минздрава




Торрент файл
скачать торрент магнет ссылка Добавлен: 28 ноя 2018, 12:32
Размер: 3.09 ГБ
Сидеров: 0
Личеров: 0
Статус: (salma3)
Автор

СообщениеДобавлено: 28 ноя 2018, 12:32 

Не в сети
Супермодератор
Аватара пользователя
Дата регистрации:
15 фев 2012, 16:44
Возраст: 31
Спасибо: 8273 / 2148
Сообщения: 96527
Год выпуска: 2018
Жанр: Драма, военный
Режиссер: Карен Оганесян

В ролях: Владимир Машков, Микаэл Джанибекян, Ольга Медынич, Алексей Шевченков, Максим Емельянов, Сабина Ахмедова, Зарина Мухитдинова, Олег Галахов, Владимир Нисков

О фильме: 1991-й год. Некогда единый и могучий Советский Союз раскалывается изнутри. Жители удалённого кишлака в Средней Азии с тревогой узнают новости о волнениях, прокатывающихся по стране. Но ведь здесь местные давно живут бок о бок с русскими. Герои нашей истории — музыканты полкового оркестра, отработавшие на свадьбе в дальнем ауле и вернувшиеся в часть к пустым баракам. Полк получил срочный приказ о передислокации и ушёл. В это время в горах появился отряд боевиков, перешедших границу для того, чтобы начать в стране гражданскую войну. И вместо того, чтобы догонять полк, музыканты, половина из которых ещё совсем мальчишки, остаются для защиты мира в посёлке. Это история про проверку на человечность, силу духа, умение устоять против волны ненависти и гнева, про любовь и, конечно, про музыку, которая побеждает там, где автоматы и танки бессильны.



Страна: Россия
Продолжительность: 2 x ~ 02:17:00
Перевод: Не требуется

Файл
Формат: avi
Качество: WEBRip
Видео: XviD build 73, 720x304 (2.35:1), 25.000 fps, 1500 Kbps (0.275 bit/pixel)
Звук: 48.0 kHz, AC3, 2/0 ch, 192 kbps

General
Complete name : D:RazdachiMednoe.Solnce.2018.XviD.WEBRip.GeneralFilmMednoe.Solnce.e01.avi
Format : AVI
Format/Info : Audio Video Interleave
File size : 1.63 GiB
Duration : 2 h 16 min
Overall bit rate : 1 708 kb/s
Writing application : VirtualDubMod 1.5.10.3 | http://www.virtualdub-fr.org || (build 2550/release)
Writing library : VirtualDubMod build 2550/release

Video
ID : 0
Format : MPEG-4 Visual
Format profile : Advanced Simple@L5
Format settings, BVOP : 1
Format settings, QPel : No
Format settings, GMC : No warppoints
Format settings, Matrix : Custom
Codec ID : XVID
Codec ID/Hint : XviD
Duration : 2 h 16 min
Bit rate : 1 506 kb/s
Width : 720 pixels
Height : 304 pixels
Display aspect ratio : 2.35:1
Frame rate : 25.000 FPS
Color space : YUV
Chroma subsampling : 4:2:0
Bit depth : 8 bits
Scan type : Progressive
Compression mode : Lossy
Bits/(Pixel*Frame) : 0.275
Stream size : 1.44 GiB (88%)
Writing library : XviD 73

Audio
ID : 1
Format : AC-3
Format/Info : Audio Coding 3
Format settings, Endianness : Big
Codec ID : 2000
Duration : 2 h 16 min
Bit rate mode : Constant
Bit rate : 192 kb/s
Channel(s) : 2 channels
Channel positions : Front: L R
Sampling rate : 48.0 kHz
Frame rate : 31.250 FPS (1536 SPF)
Bit depth : 16 bits
Compression mode : Lossy
Stream size : 188 MiB (11%)
Alignment : Split accross interleaves
Interleave, duration : 40 ms (1.00 video frame)
Interleave, preload duratio : 500 ms
Service kind : Complete Main


Релиз от:


_________________
Проголосуй за трекер Открытый торрент трекер - RUS-MEDIA.ORG

Проголосуй Открытый торрент трекер - RUS-MEDIA.ORG


Скачать книги и аудио книги через торрент


Вернуться к началу
 Профиль Отправить личное сообщение  
 
   Похожие торренты   Автор   Торрент   Размер 
В этой теме нет новых непрочитанных сообщений. Медное солнце [01-02 из 02] [Драма, военный, 2018] WEBRip 1080p

salma3

0 | 0

7 ГБ

В этой теме нет новых непрочитанных сообщений. Медное солнце (Юбилейный встречный) / Copper Sun (1-2 фильм из 2)( Карен Оганесян) [2018, Драма, военный , WEB-DLRip-AVC][1080p][DD5.1]

Враг Нароода

2 | 0

11.19 ГБ

В этой теме нет новых непрочитанных сообщений. Солнце / Solis [Фантастика, драма, 2018] WEBRip, Dvo

salma3

0 | 0

1.21 ГБ

В этой теме нет новых непрочитанных сообщений. Солнце / Solis [Фантастика, драма, 2018] WEBRip 720p, Dvo

salma3

295 | 58

2.02 ГБ

В этой теме нет новых непрочитанных сообщений. Батальон [01-04 из 04] [Военный, боевик, драма, 2018] WEBRip

salma3

0 | 0

2.73 ГБ

В этой теме нет новых непрочитанных сообщений. Батальон [01-04 из 04] [Военный, боевик, драма, 2018] WEBRip 720p

salma3

0 | 0

5.73 ГБ

В этой теме нет новых непрочитанных сообщений. Семь пар нечистых [Военный, драма, 2018] WEBRip

NTL

132 | 5

747.56 МБ


Начать новую тему Ответить на тему  [ 1 сообщение ] 




Для Мосгорсуда, Роскомнадзора и рекламодателей:: rstracker[собака]yandex.ru
cron