COVID-19 - Последняя информация о коронавирусе на сайте Минздрава




Торрент файл
скачать торрент магнет ссылка Добавлен: 31 окт 2018, 12:11
Размер: 3.74 ГБ
Сидеров: 0
Личеров: 0
Статус: (salma3)
Автор

СообщениеДобавлено: 10 окт 2018, 11:42 

Не в сети
Супермодератор
Аватара пользователя
Дата регистрации:
15 фев 2012, 16:44
Возраст: 30
Спасибо: 8263 / 2148
Сообщения: 96287
Год выпуска: 2018
Жанр: Фантастика, боевик
Режиссер: Дэвид Наттер

В ролях: Грант Гастин, Кэндис Паттон, Рик Коснетт, Даниэль Панабэйкер, Карлос Вальдес, Томас Кэвэна, Джесси Л. Мартин, Джон Уэсли Шипп, Стивен Амелл, Ёсиэ Бэнкрофт

О фильме:
Из-за несчастного случая судмедэксперт Барри Аллен приобретает способность передвигаться с невероятной скоростью. Этот случай делает из него супергероя, которым он всегда мечтал стать. Защищая город, как ангел-хранитель, делая невозможное, спасая жизни со скоростью вспышки, по подсказке Оливера Куина (Стрела), он берёт себе и соответствующее имя - Флэш.



Страна: США
Продолжительность: 1 x ~ 00:44:00
Перевод: Любительский многоголосый | ColdFilm

Файл
Кодек: x264 (AVC)
Качество: WEBRip 720p
Видео: 3000 Кбит/с, 1280x720, 25.000 fps
Аудио: Русский (AC3, 2 ch, 125 Кбит/с)




General
Unique ID : 254491022641916269379343200060652186280 (0xBF753027DEEABC2E8C519A7B413CEAA8)
Complete name : The.Flash.S05E01.720p.ColdFilm.mkv
Format : Matroska
Format version : Version 2
File size : 969 MiB
Duration : 42 min 14 s
Overall bit rate : 3 206 kb/s
Encoded date : UTC 2018-10-10 01:47:09 / UTC 2017-11-20 18:25:40
Writing application : mkvmerge v3.3.0 ('Language') built on Mar 24 2010 14:59:24
Writing library : libebml v0.8.0 + libmatroska v0.9.0 / Lavf54.63.104

Video
ID : 1
Format : AVC
Format/Info : Advanced Video Codec
Format profile : Main@L3.1
Format settings : CABAC / 1 Ref Frames
Format settings, CABAC : Yes
Format settings, ReFrames : 1 frame
Codec ID : V_MPEG4/ISO/AVC
Duration : 42 min 14 s
Bit rate : 3 000 kb/s
Width : 1 280 pixels
Height : 720 pixels
Display aspect ratio : 16:9
Frame rate mode : Constant
Frame rate : 25.000 FPS
Color space : YUV
Chroma subsampling : 4:2:0
Bit depth : 8 bits
Scan type : Progressive
Bits/(Pixel*Frame) : 0.130
Stream size : 892 MiB (92%)
Writing library : x264 core 129
Default : No
Forced : No

Audio
ID : 2
Format : AC-3
Format/Info : Audio Coding 3
Codec ID : A_AC3
Duration : 42 min 14 s
Bit rate mode : Constant
Bit rate : 192 kb/s
Channel(s) : 2 channels
Channel positions : Front: L R
Sampling rate : 48.0 kHz
Frame rate : 31.250 FPS (1536 SPF)
Bit depth : 16 bits
Compression mode : Lossy
Stream size : 58.0 MiB (6%)
Service kind : Complete Main
Default : Yes
Forced : No



Релиз от:


_________________
Проголосуй за трекер Открытый торрент трекер - RUS-MEDIA.ORG

Проголосуй Открытый торрент трекер - RUS-MEDIA.ORG


Скачать книги и аудио книги через торрент


Вернуться к началу
 Профиль Отправить личное сообщение  
 
   Похожие торренты   Автор   Торрент   Размер 
В этой теме нет новых непрочитанных сообщений. Флэш / The Flash [05x06 из 23] [Фантастика, боевик, 2018] WEBRip, Mvo [ColdFilm]

salma3

0 | 0

3.14 ГБ

В этой теме нет новых непрочитанных сообщений. Флэш / The Flash / 4 сезон 1-23 серии из 23 [фантастика, фэнтези, боевик, 2017] WEBRip, Mvo [ColdFilm]

salma3

0 | 0

11.04 ГБ

В этой теме нет новых непрочитанных сообщений. Флэш / The Flash [06x01 из 22] [фантастика, драма, боевик, приключения, 2019] WEBRip, Mvo [ColdFilm]

K15

142 | 65

503.48 МБ

В этой теме нет новых непрочитанных сообщений. Флэш / The Flash [S04] [фантастика, боевик, драма, 2017] WEBRip 720p, Mvo [LostFilm]

salma3

0 | 0

26.56 ГБ

В этой теме нет новых непрочитанных сообщений. Флэш / The Flash [S05] [фантастика, боевик, драма, 2018] WEBRip 1080p, Mvo [LostFilm]

salma3

0 | 0

49.31 ГБ

В этой теме нет новых непрочитанных сообщений. Флэш / The Flash [S05] [фантастика, боевик, драма, 2018] WEB-DL 720p, Mvo [LostFilm]

salma3

В этой теме нет новых непрочитанных сообщений. Флэш / The Flash [S05] [фантастика, боевик, драма, 2018] WEB-DL 720p, Mvo [LostFilm]

salma3

2 | 4

24.1 ГБ


СообщениеДобавлено: 17 окт 2018, 11:53 

Не в сети
Супермодератор
Аватара пользователя
Дата регистрации:
15 фев 2012, 16:44
Возраст: 30
Спасибо: 8263 / 2148
Сообщения: 96287
salma3 писал(а):
Re: Флэш / The Flash [05x02 из 23] [Фантастика, боевик, 2018] WEBRip 720p, Mvo [ColdFilm]

_________________
Проголосуй за трекер Открытый торрент трекер - RUS-MEDIA.ORG

Проголосуй Открытый торрент трекер - RUS-MEDIA.ORG


Скачать книги и аудио книги через торрент


Вернуться к началу
 Профиль Отправить личное сообщение  
 

СообщениеДобавлено: 31 окт 2018, 12:12 

Не в сети
Супермодератор
Аватара пользователя
Дата регистрации:
15 фев 2012, 16:44
Возраст: 30
Спасибо: 8263 / 2148
Сообщения: 96287
salma3 писал(а):
Re: Флэш / The Flash [05x04 из 23] [Фантастика, боевик, 2018] WEBRip 720p, Mvo [ColdFilm]

_________________
Проголосуй за трекер Открытый торрент трекер - RUS-MEDIA.ORG

Проголосуй Открытый торрент трекер - RUS-MEDIA.ORG


Скачать книги и аудио книги через торрент


Вернуться к началу
 Профиль Отправить личное сообщение  
 
Начать новую тему Ответить на тему  [ Сообщений: 3 ] 




Для Мосгорсуда, Роскомнадзора и рекламодателей:: rstracker[собака]yandex.ru
cron