COVID-19 - Последняя информация о коронавирусе на сайте Минздрава




Торрент файл
скачать торрент магнет ссылка Добавлен: 07 сен 2018, 16:16
Размер: 32.66 ГБ
Сидеров: 0
Личеров: 0
Статус: (salma3)
Автор

СообщениеДобавлено: 07 сен 2018, 16:16 

Не в сети
Супермодератор
Аватара пользователя
Дата регистрации:
15 фев 2012, 16:44
Возраст: 30
Спасибо: 8262 / 2148
Сообщения: 96153
Год выпуска: 2007-2008
Страна: США
Жанр: Комедия
Продолжительность: 22 х 00:21:00

Перевод: Профессиональный (многоголосый), озвучено телекомпанией "MTV Russia"

Режиссёр: Грег Гарсиа
В ролях: Джейсон Ли, Итан Сапли, Джейми Прессли, Эдди Стиплз, Надин Веласкес и другие

Описание: Жизнь Эрла, мелкого проходимца районного масштаба, полна ошибок и неправильных решений. Сразу после выигрыша джек-пота в небольшой лотерее, его сбивает машина, и он теряет выигравший билет. В больнице на него снисходит озарение: все дело в карме и неприятности преследуют его потому, что он сам нескончаемый источник неприятностей для окружающих.

Герой решает круто изменить свою судьбу. Он хочет исправить все неправильное, что он сделал со времен своих причуд в начальной школе, когда изощренно измывался над одноклассниками и тащил все, что попадалось под руку. С этой целью он составляет подробный список своих разнокалиберных проказ и преисполняется решимости разыскать всех, кому он когда-либо сделал недоброе и компенсировать зло, чего бы это ни ему, ни когда-то от него потерпевшим ни стоило.



Качество: WEB-DL 1080p AMAZON
Контейнер: MKV
Видео: MPEG-4 AVC, 1920x1080 [16:9], 25.000 fps, ~ 10000 Kbps
Аудио 1: [Русский] AC3, 48 kHz, 2 ch, 192 Kbps
Аудио 2: [Английский] AC3, 48 kHz, 2 ch, 192 Kbps
Субтитры: отсутствуют
Релиз FilmsClub - BenderBEST

• Видеоряд от AMAZON
• Частота кадров видео изменена с 23,976 fps на 25 fps для того, чтобы не перетягивать дубляж во избежание искажений голосов актёров озвучки.
• Запись и работа со звуком BenderBEST
Общее
Уникальный идентификатор : 215489886658877621889243991278252687758 (0xA21DD7B0E420E5C18EDE5F840DEF818E)
Полное имя : I:My.Name.Is.Earl.S03.1080p.AMZN.WEB-DL.Rus.Eng_FILMSCLUBMy.Name.Is.Earl.S03E0102.1080p.AMZN.WEB-DL.Rus.Eng_FILMSCLUB.mkv
Формат : Matroska
Версия формата : Version 4 / Version 2
Размер файла : 2,94 Гбайт
Продолжительность : 39 м.
Общий поток : 10,6 Мбит/сек
Название фильма : My name is Earl S03E0102 - ReJliz FILMS CLUB by BenderBEST
Дата кодирования : UTC 2017-12-24 10:46:36
Программа кодирования : mkvmerge v6.9.1 ('Blue Panther') 32bit built on Apr 18 2014 18:15:44
Библиотека кодирования : libebml v1.3.0 + libmatroska v1.4.1

Видео
Идентификатор : 1
Формат : AVC
Формат/Информация : Advanced Video Codec
Профиль формата : High@L4
Параметр CABAC формата : Да
Параметр ReFrames формата : 4 кадра
Идентификатор кодека : V_MPEG4/ISO/AVC
Продолжительность : 39 м.
Вид битрейта : Постоянный
Битрейт : 10000 Кбит/сек
Ширина : 1920 пикселей
Высота : 1080 пикселей
Соотношение сторон : 16:9
Режим частоты кадров : Постоянный
Частота кадров : 25,000 кадров/сек
Цветовое пространство : YUV
Субдискретизация насыщенности : 4:2:0
Битовая глубина : 8 бит
Тип развёртки : Прогрессивная
Бит/(Пиксели*Кадры) : 0.193
Размер потока : 2,78 Гбайт (94%)
Язык : English
Default : Да
Forced : Да
Цветовой диапазон : Limited
Основные цвета : BT.709
Характеристики трансфера : BT.709
Коэффициенты матрицы : BT.709

Аудио #1
Идентификатор : 2
Формат : AC-3
Формат/Информация : Audio Coding 3
Расширение режима : CM (complete main)
Параметр Endianness формата : Big
Идентификатор кодека : A_AC3
Продолжительность : 39 м.
Вид битрейта : Постоянный
Битрейт : 192 Кбит/сек
Каналы : 2 канала
Расположение каналов : Front: L R
Частота : 48,0 КГц
Частота кадров : 31,250 кадров/сек (1536 spf)
Метод сжатия : С потерями
Размер потока : 54,5 Мбайт (2%)
Заголовок : AC3 2.0 @ 192 kbps - MVO, MTV Russia
Язык : Russian
Default : Да
Forced : Да

Аудио #2
Идентификатор : 3
Формат : AC-3
Формат/Информация : Audio Coding 3
Расширение режима : CM (complete main)
Параметр Endianness формата : Big
Идентификатор кодека : A_AC3
Продолжительность : 39 м.
Вид битрейта : Постоянный
Битрейт : 192 Кбит/сек
Каналы : 2 канала
Расположение каналов : Front: L R
Частота : 48,0 КГц
Частота кадров : 31,250 кадров/сек (1536 spf)
Метод сжатия : С потерями
Размер потока : 54,5 Мбайт (2%)
Заголовок : AC3 2.0 @ 192 kbps
Язык : English
Default : Нет
Forced : Нет

Текст
Идентификатор : 4
Формат : UTF-8
Идентификатор кодека : S_TEXT/UTF8
Идентификатор кодека/Информация : UTF-8 Plain Text
Заголовок : Unrated
Язык : Russian
Default : Да
Forced : Да


_________________
Проголосуй за трекер Открытый торрент трекер - RUS-MEDIA.ORG

Проголосуй Открытый торрент трекер - RUS-MEDIA.ORG


Скачать книги и аудио книги через торрент


Вернуться к началу
 Профиль Отправить личное сообщение  
 
   Похожие торренты   Автор   Торрент   Размер 
В этой теме нет новых непрочитанных сообщений. Меня зовут Эрл / My name is Earl [S02] [Комедия, 2006] WEB-DL 1080p, Mvo [Рен ТВ]

salma3

0 | 10

35.82 ГБ

В этой теме нет новых непрочитанных сообщений. Меня зовут Эрл / My name is Earl [S01] [Комедия, 2005] WEB-DL 1080p, Dub [Рен ТВ]

salma3

5 | 8

36.61 ГБ

В этой теме нет новых непрочитанных сообщений. Черная комедия / Black-ish [S03] [Комедия, 2016] WEB-DL 1080p, Mvo [Кириллица]

salma3

0 | 0

37.65 ГБ

В этой теме нет новых непрочитанных сообщений. Энджи Трайбека / Angie Tribeca [S03] [Комедия, 2017] WEB-DLRip 1080p, Mvo [IdeaFilm]

salma3

18 | 25

11.4 ГБ

В этой теме нет новых непрочитанных сообщений. Девственница Джейн / Jane the virgin [S03] [Комедия, драма, мелодрама, 2016] WEB-DL 1080p, Mvo [Amedia]

salma3

0 | 0

34.71 ГБ

В этой теме нет новых непрочитанных сообщений. Меня зовут Дэвид / I Am David [драма, 2003] WEB-DL 1080p, Mvo

salma3

68 | 21

9.46 ГБ

В этой теме нет новых непрочитанных сообщений. Тёмная материя / Dark Matter [S03] [фантастика, 2017] WEBRip 1080p, WEB-DL 1080p, Mvo [BaibaKo]

salma3

38 | 426

30.37 ГБ


Начать новую тему Ответить на тему  [ 1 сообщение ] 




Для Мосгорсуда, Роскомнадзора и рекламодателей:: rstracker[собака]yandex.ru
cron