Торрент файл
скачать торрент магнет ссылка Добавлен: 17 июл 2018, 11:26
Размер: 29.27 ГБ
Сидеров: 0
Личеров: 0
Статус: (salma3)
Автор

СообщениеДобавлено: 17 июл 2018, 11:26 

Не в сети
Супермодератор
Аватара пользователя
Дата регистрации:
15 фев 2012, 16:44
Возраст: 30
Спасибо: 8185 / 2148
Сообщения: 95725
Год выпуска: 2013
Страна: США
Жанр: драма, комедия
Продолжительность: ~30 мин.

Перевод 1: Профессиональный (многоголосый закадровый) Amedia (студия "АРК-ТВ")
Перевод 2: Профессиональный (многоголосый закадровый) 2x2 (студия "Кравец")

Режиссёр: Стивен Хопкинс, Мэттью Карнахан, Дэйзи фон Шерлер Майер
В ролях: Дон Чидл, Кристен Белл, Джош Лоусон, Доун Оливьери, Бен Швартц, Глинн Турман и др

Описание: Необычный и язвительный взгляд на очень успешного и беспощадного консультанта по вопросам управления Марти, который не брезгует никакими средствами, чтобы получить нужную для его клиентов информацию.



Исходники: Zgurvas
Запись звука 2х2: #Antisnl#

Качество: WEB-DL 1080p (Amazon)
Контейнер: MKV
Видео: AVC, 1920x1080 (16:9), 23.976 fps, 11.9 Mbps (0.240 bit/pixel)
Аудио 1: AC3, 48 KHz, 6 ch, 384 kbps (Amedia) АРК-ТВ
Аудио 2: AC3, 48 KHz, 2 ch, 192 kbps (2x2) Кравец
Аудио 3: E-AC3, 48 KHz, 6 ch, 640 kbps (Оригинал)
Субтитры: Английские

Complete name : D:House.of.Lies.S02.1080p.AMZNHouse.of.Lies.S02E01.1080p.AMZN.mkv
Format : Matroska
Format version : Version 4 / Version 2
File size : 2.54 GiB
Duration : 27 min 38 s
Overall bit rate mode : Variable
Overall bit rate : 13.2 Mb/s
Encoded date : UTC 2018-07-16 16:11:14
Writing application : mkvmerge v9.9.0 ('Pick Up') 32bit
Writing library : libebml v1.3.4 + libmatroska v1.4.5

Video
ID : 1
Format : AVC
Format/Info : Advanced Video Codec
Format profile : High@L4
Format settings : CABAC / 4 Ref Frames
Format settings, CABAC : Yes
Format settings, RefFrames : 4 frames
Codec ID : V_MPEG4/ISO/AVC
Duration : 27 min 38 s
Bit rate mode : Variable
Bit rate : 11.9 Mb/s
Maximum bit rate : 15.0 Mb/s
Width : 1 920 pixels
Height : 1 080 pixels
Display aspect ratio : 16:9
Frame rate mode : Constant
Frame rate : 23.976 (24000/1001) FPS
Color space : YUV
Chroma subsampling : 4:2:0
Bit depth : 8 bits
Scan type : Progressive
Bits/(Pixel*Frame) : 0.240
Stream size : 2.31 GiB (91%)
Writing library : x264 core 148 r2623 d5b2374
Encoding settings : cabac=1 / ref=4 / deblock=1:-1:-1 / analyse=0x3:0x133 / me=umh / subme=9 / psy=1 / psy_rd=1.00:0.15 / mixed_ref=1 / me_range=24 / chroma_me=1 / trellis=2 / 8x8dct=1 / cqm=0 / deadzone=21,11 / fast_pskip=1 / chroma_qp_offset=-3 / threads=34 / lookahead_threads=5 / sliced_threads=0 / nr=150 / decimate=1 / interlaced=0 / bluray_compat=0 / constrained_intra=0 / bframes=8 / b_pyramid=2 / b_adapt=2 / b_bias=0 / direct=3 / weightb=1 / open_gop=0 / weightp=2 / keyint=120 / keyint_min=61 / scenecut=0 / intra_refresh=0 / rc_lookahead=120 / rc=crf / mbtree=1 / crf=18.0 / qcomp=0.60 / qpmin=0 / qpmax=69 / qpstep=4 / vbv_maxrate=15000 / vbv_bufsize=31250 / crf_max=0.0 / nal_hrd=vbr / filler=0 / ip_ratio=1.40 / aq=3:1.00
Language : English
Default : Yes
Forced : No
Color range : Limited
Color primaries : BT.709
Transfer characteristics : BT.709
Matrix coefficients : BT.709

Audio #1
ID : 2
Format : AC-3
Format/Info : Audio Coding 3
Format settings, Endianness : Big
Codec ID : A_AC3
Duration : 27 min 36 s
Bit rate mode : Constant
Bit rate : 384 kb/s
Channel(s) : 6 channels
Channel positions : Front: L C R, Side: L R, LFE
Sampling rate : 48.0 kHz
Frame rate : 31.250 FPS (1536 SPF)
Bit depth : 16 bits
Compression mode : Lossy
Stream size : 75.8 MiB (3%)
Title : Amedia
Language : Russian
Service kind : Complete Main
Default : Yes
Forced : No

Audio #2
ID : 3
Format : AC-3
Format/Info : Audio Coding 3
Format settings, Endianness : Big
Codec ID : A_AC3
Duration : 27 min 38 s
Bit rate mode : Constant
Bit rate : 192 kb/s
Channel(s) : 2 channels
Channel positions : Front: L R
Sampling rate : 48.0 kHz
Frame rate : 31.250 FPS (1536 SPF)
Bit depth : 16 bits
Compression mode : Lossy
Stream size : 38.0 MiB (1%)
Title : 2x2
Language : Russian
Service kind : Complete Main
Default : No
Forced : No

Audio #3
ID : 4
Format : E-AC-3
Format/Info : Enhanced Audio Coding 3
Format settings, Endianness : Big
Codec ID : A_EAC3
Duration : 27 min 38 s
Bit rate mode : Constant
Bit rate : 640 kb/s
Channel(s) : 6 channels
Channel positions : Front: L C R, Side: L R, LFE
Sampling rate : 48.0 kHz
Frame rate : 187.500 FPS (256 SPF)
Compression mode : Lossy
Stream size : 127 MiB (5%)
Language : English
Service kind : Complete Main
Default : No
Forced : No

Text
ID : 5
Format : UTF-8
Codec ID : S_TEXT/UTF8
Codec ID/Info : UTF-8 Plain Text
Duration : 27 min 20 s
Bit rate : 121 b/s
Count of elements : 816
Stream size : 24.2 KiB (0%)
Language : English
Default : No
Forced : No


_________________
Проголосуй за трекер Открытый торрент трекер - RUS-MEDIA.ORG

Проголосуй Открытый торрент трекер - RUS-MEDIA.ORG


Скачать книги и аудио книги через торрент


Вернуться к началу
 Профиль Отправить личное сообщение  
 
   Похожие торренты   Автор   Торрент   Размер 
В этой теме нет новых непрочитанных сообщений. Девственница Джейн / Jane the virgin [S02] [Комедия, драма, мелодрама, 2015] WEB-DL 1080p, Mvo [Amedia]

salma3

0 | 0

41.82 ГБ

В этой теме нет новых непрочитанных сообщений. Город лжи / City of Lies [Триллер, драма, криминал, 2018] BDRemux 1080p, Mvo [СВ Студия]

salma3

0 | 0

22.87 ГБ

В этой теме нет новых непрочитанных сообщений. Город лжи / City of Lies [Триллер, драма, криминал, 2018] BDRip 1080p, Mvo [СВ Студия]

salma3

0 | 0

10.55 ГБ

В этой теме нет новых непрочитанных сообщений. Большая маленькая ложь / Big Little Lies [S01] [драма, криминал, детектив, 2017] BDRip 1080p, Mvo [NewStudio-Amedia]

salma3

0 | 0

29.28 ГБ

В этой теме нет новых непрочитанных сообщений. Вершина озера / Top of the Lake [S02] [драма, 2017] WEB-DLRip, Mvo [Amedia]

salma3

56 | 29

4.46 ГБ

В этой теме нет новых непрочитанных сообщений. Вершина озера / Top of the Lake [S02] [драма, 2017] WEBRip 1080p, Mvo [Amedia]

salma3

34 | 30

12.67 ГБ

В этой теме нет новых непрочитанных сообщений. Большая маленькая ложь / Big Little Lies [S02] [драма, криминал, детектив, 2019] WEB-DL 720p, Mvo [TVShows]

salma3

0 | 0

12.66 ГБ


Начать новую тему Ответить на тему  [ 1 сообщение ] 




Для Мосгорсуда, Роскомнадзора и рекламодателей:: mosgorsud-torrent[собачка]yandex.ru
cron