Торрент файл
скачать торрент магнет ссылка Добавлен: 11 июл 2018, 23:08
Размер: 971.02 МБ
Сидеров: 0
Личеров: 0
Статус: (salma3)
Автор

СообщениеДобавлено: 11 июл 2018, 23:08 

Не в сети
Супермодератор
Аватара пользователя
Дата регистрации:
15 фев 2012, 16:44
Возраст: 28
Спасибо: 7224 / 2147
Сообщения: 68058
Год выхода: 2018
Жанр: фэнтези, приключения
Режиссер: Джон Лойд, Курт Найт, Кайнен Гриффин

В ролях: Джессика Грин, Джейк Стормоен, Эндрю Ховард, Имоджен Уотерхаус, Ананд Десаи-Барочиа, Робин Малкольм, Кристиан Нэрн и др.

О фильме:
В центре сюжета оказывается представительница расы Чернокровок — Тэлон. Она ищет убийц своей семьи, следы которых ведут в крепость, находящуюся на границе обитаемых земель. Во время путешествия девушка обнаруживает у себя сверхъестественные способности, которыми ей придется овладеть, чтобы спасти себя и защитить мир от фанатичного религиозного диктатора.



Страна: США
Продолжительность: ~ 44 мин. серия
Перевод: Любительский (многоголосый закадровый) | OMSKBIRD

Файл
Кодек: MPEG-4 AVC
Качество: WEBRip 720p
Видео: AVC, 1280x720 (16:9), 23.976 fps, ~ 3000 kbps
Звук: Аудио rus: AC-3, 48 KHz, 2 ch, 192 kbps | OMSKBIRD records

Семпл

Присутствует реклама!



General
Unique ID : 235571598798275324421554040009165758252 (0xB139708AC2057600BB6771A29EA1DF2C)
Complete name : H:Мои ДокументыВидеоРАЗДАЧИАУТПОСТThe Outpost S01 WEBRip 720p (OMSKBIRD)The Outpost S01E01 WEBRip 720p (OMSKBIRD).mkv
Format : Matroska
Format version : Version 2
File size : 971 MiB
Duration : 43 min 6 s
Overall bit rate : 3 149 kb/s
Encoded date : UTC 2018-07-11 17:26:22
Writing application : mkvmerge v4.0.0 ('The Stars were mine') сборка от Jun 6 2010 16:18:42
Writing library : libebml v1.0.0 + libmatroska v1.0.0

Video
ID : 1
Format : AVC
Format/Info : Advanced Video Codec
Format profile : Main@L4.1
Format settings, CABAC : Yes
Format settings, RefFrames : 3 frames
Codec ID : V_MPEG4/ISO/AVC
Duration : 43 min 6 s
Bit rate : 2 894 kb/s
Width : 1 280 pixels
Height : 720 pixels
Display aspect ratio : 16:9
Frame rate mode : Constant
Frame rate : 23.976 (24000/1001) FPS
Standard : NTSC
Color space : YUV
Chroma subsampling : 4:2:0
Bit depth : 8 bits
Scan type : Progressive
Bits/(Pixel*Frame) : 0.131
Stream size : 892 MiB (92%)
Language : English
Default : Yes
Forced : No
Color range : Limited
Color primaries : BT.709
Transfer characteristics : BT.709
Matrix coefficients : BT.709

Audio
ID : 2
Format : AC-3
Format/Info : Audio Coding 3
Format settings, Endianness : Big
Codec ID : A_AC3
Duration : 43 min 6 s
Bit rate mode : Constant
Bit rate : 192 kb/s
Channel(s) : 2 channels
Channel positions : Front: L R
Sampling rate : 48.0 kHz
Frame rate : 31.250 FPS (1536 SPF)
Bit depth : 16 bits
Compression mode : Lossy
Stream size : 59.2 MiB (6%)
Service kind : Complete Main
Default : Yes
Forced : No


_________________
Проголосуй за трекер Открытый торрент трекер - RUS-MEDIA.ORG

Проголосуй Открытый торрент трекер - RUS-MEDIA.ORG


Вернуться к началу
 Профиль Отправить личное сообщение  
 
   Похожие торренты   Автор   Торрент   Размер 
В этой теме нет новых непрочитанных сообщений. Аванпост / The Outpost [01x01 из 10] [фэнтези, приключения, 2018] WEBRip, Mvo [OMSKBIRD]

salma3

11 | 8

611.56 МБ

В этой теме нет новых непрочитанных сообщений. Аванпост / The Outpost [01x01-02 из 10] [Фэнтези, приключения, 2018] HDTVRip 720p, Mvo [GostFilm]

salma3

0 | 0

1.76 ГБ

В этой теме нет новых непрочитанных сообщений. Аванпост / The Outpost [01x01-02 из 10] [фэнтези, 2018] WEB-DL 720p, Mvo [LostFilm]

salma3

19 | 11

2.22 ГБ

В этой теме нет новых непрочитанных сообщений. Аванпост / The Outpost [01x01-02 из 10] [Фэнтези, приключения, 2018] HDTVRip, Mvo [GostFilm]

salma3

0 | 0

1021.28 МБ

В этой теме нет новых непрочитанных сообщений. Охотники на троллей / Trollhunters [01x01-04 из 26] ( фэнтези, комедия, приключения, семейный, 2016) WEBRip 720p | L1

marya111

132 | 67

1.88 ГБ

В этой теме нет новых непрочитанных сообщений. Лед / Ice [S02] [Драма, криминал, 2018] WEBRip 720p, Mvo [OmskBird]

salma3

0 | 0

11.19 ГБ

В этой теме нет новых непрочитанных сообщений. Убивая Еву / Killing Eve [S01] [триллер, комедия, 2018] WEBRip 720p, Mvo [OmskBird]

salma3

19 | 61

7.52 ГБ


Начать новую тему Ответить на тему  [ 1 сообщение ] 




Для Мосгорсуда, Роскомнадзора и рекламодателей:: mosgorsud-torrent[собачка]yandex.ru
cron