Торрент файл
скачать торрент магнет ссылка Добавлен: 12 июл 2018, 20:29
Размер: 5.47 ГБ
Сидеров: 0
Личеров: 0
Автор

СообщениеДобавлено: 08 июл 2018, 19:12 

Не в сети
Аватара пользователя
Дата регистрации:
09 авг 2014, 12:07
Спасибо: 63 / 1
Сообщения: 235
Откуда: КРАСНОГОРСК


Проповедник (Пастырь) / Preacher Сезон 3, Серия 1-3 из 13



Год выпуска: 2018
Выпущено: США, AMC Studios
Жанр:Фэнтези, драма, детектив, приключения
Продолжительность: 00:45:00
Сезон:3
Серия: 1--3
Количество серий в сезоне: 13

Озвучка 1: - Профессиональный многоголосый -Lostfilm- Русский

Озвучка2: Профессиональный многоголосый - ProfixMedia -Русский

Озвучка3: Профессиональный многоголосый - BaibaKО -Русский

Озвучка 4: Профессиональный многоголосый - AlexFilm -Русский

Озвучка 5: Профессиональный многоголосый - Jaskier -Русский

Озвучка 6: Профессиональный многоголосый - OMSKBIRD -Русский

Озвучка 7: Профессиональный многоголосый - NewStudio -Русский

Озвучка 8: Профессиональный многоголосый - Английский - Оригинал

Субтитры: : Russian, English, English SDH


Официальный сайт

MDB

Режиссер: Эван Голдберг, Сет Роген, Майкл Словис

В ролях: Доминик Купер, Том Брук, У. Эрл Браун, Йен Коллетти, Джозеф Гилган, Люси Гриффитс, Джеки Эрл Хейли, Рут Негга, Дерек Уилсон, Анатол Юсеф


Священник Джесси Кастер по воле случая стал носителем внутри своего естества странного существа по имени Генезис. Это дитя совокупления ангела и демона представляет собой одновременно чистый идеал и квинтэссенцию света, но также сгусток абсолютного зла. Генезис — единственное существо во Вселенной, которое может встать вровень с Богом, если того пожелает, а его носитель автоматически становится самым могущественным существом в материальном мире. И это проповедник Кастер.



Качество :WEB-DLRip 720p
Формат: MKV
Видео кодек: H264
Видео: 3047Кбит/сек,1280х720(16.9),в 23.976кадр/сек,AVC (High@L3.1)(CABAC/5 Ref Frames)

Аудио Кодек:AC3

Аудио #1:AC3 640 Kbps, 48.0 KHz, 6 ch- Lostfilm -Русский

Аудио #2:AC3 , 384 Kbps, 48.0 KHz, 6 ch- ProfixMedia -Русский

Аудио #3:AC3 , 384 Kbps, 48.0 KHz, 6 ch- BaibaKО -Русский

Аудио #4:AC3 , 384 Kbps, 48.0 KHz, 6 ch-AlexFilm -Русский

Аудио #5:AC3 , 384 Kbps, 48.0 KHz, 6 ch-Jaskier -Русский

Аудио #6:AC3 , 384 Kbps, 48.0 KHz, 6 ch- OMSKBIRD -Русский

Аудио #7:AC3 , 384 Kbps, 48.0 KHz, 6 ch- NewStudio -Русский

Аудио #8: AC3, 640 Kbps, 48.0 KHz,6 ch - - English - Оригинал[/color

Звуковая дорожка сделана путем наложения чистого голоса озвучивателей на центральный канал оригинальной дорожки. Качество идентично звуковой дорожке.



[color=Blue]
3 сезон 1 серия - Ангелвиль - Angelville
3 сезон 2 серия - Сучьитвари - Sonsabitches
3 сезон 3 серия - Будет больно - Gonna Hurt



Общее
Уникальный идентификатор : 333843478804455819750227059646763827668 (0xFB27EA4E44DF79E5C37EC6AA9C0701D4)
Полное имя : C:\Nikolai.Baranov & PIRATIYA\ПРОПОВЕДНИК ( Preacher )\PREACHER_S01_Н264_DD5.1_N.B_HD_720_6xRus_Eng\Preacher_S03E01_Н264_DD5.1_N.B_HD_720_6xRus_Eng.mkv
Формат : Matroska
Версия формата : Version 4 / Version 2
Размер файла : 1,94 Гбайт
Продолжительность : 41 м. 55 с.
Общий поток : 6634 Кбит/сек
Название фильма : Preacher S03E01 @ Nikolai.Baranov & PIRATIYA
Дата кодирования : UTC 2018-07-12 14:42:11
Программа кодирования : mkvmerge v24.0.0 ('Beyond The Pale') 64-bit
Библиотека кодирования : libebml v1.3.6 + libmatroska v1.4.9

Видео
Идентификатор : 1
Формат : AVC
Формат/Информация : Advanced Video Codec
Профиль формата : High@L3.1
Настройки формата : CABAC / 5 Ref Frames
Параметр CABAC формата : Да
Параметр RefFrames формата : 5 кадров
Идентификатор кодека : V_MPEG4/ISO/AVC
Продолжительность : 41 м. 55 с.
Битрейт : 3047 Кбит/сек
Ширина : 1280 пикселей
Высота : 720 пикселей
Соотношение сторон : 16:9
Режим частоты кадров : Постоянный
Частота кадров : 23,976 (24000/1001) кадра/сек
Цветовое пространство : YUV
Субдискретизация насыщенности : 4:2:0
Битовая глубина : 8 бит
Тип развёртки : Прогрессивная
Бит/(Пиксели*Кадры) : 0.138
Размер потока : 913 Мбайт (46%)
Заголовок : Preacher_S03E01_Н264_DD5.1_N.B_HD_720_6xRus_Eng
Язык : Russian
Default : Да
Forced : Нет
Цветовой диапазон : Limited
Основные цвета : BT.709
Характеристики трансфера : BT.709
Коэффициенты матрицы : BT.709

Аудио #1
Идентификатор : 5
Формат : AC-3
Формат/Информация : Audio Coding 3
Идентификатор кодека : A_AC3
Продолжительность : 41 м. 55 с.
Вид битрейта : Постоянный
Битрейт : 640 Кбит/сек
Каналы : 6 каналов
Расположение каналов : Front: L C R, Side: L R, LFE
Частота : 48,0 КГц
Частота кадров : 31,250 кадров/сек (1536 SPF)
Битовая глубина : 16 бит
Метод сжатия : С потерями
Размер потока : 192 Мбайт (10%)
Заголовок : MVO LostFilm @DD5.1 AC3, 640 Kbps, 48.0 KHz, 6 ch
Язык : Russian
ServiceKind/String : Complete Main
Default : Да
Forced : Нет

Аудио #2
Идентификатор : 6
Формат : AC-3
Формат/Информация : Audio Coding 3
Идентификатор кодека : A_AC3
Продолжительность : 41 м. 55 с.
Вид битрейта : Постоянный
Битрейт : 384 Кбит/сек
Каналы : 6 каналов
Расположение каналов : Front: L C R, Side: L R, LFE
Частота : 48,0 КГц
Частота кадров : 31,250 кадров/сек (1536 SPF)
Битовая глубина : 16 бит
Метод сжатия : С потерями
Размер потока : 115 Мбайт (6%)
Заголовок : MVO ProfixMedia @DD5.1 AC3, 384 Kbps, 48.0 KHz, 6 ch
Язык : Russian
ServiceKind/String : Complete Main
Default : Нет
Forced : Нет

Аудио #3
Идентификатор : 7
Формат : AC-3
Формат/Информация : Audio Coding 3
Идентификатор кодека : A_AC3
Продолжительность : 41 м. 55 с.
Вид битрейта : Постоянный
Битрейт : 384 Кбит/сек
Каналы : 6 каналов
Расположение каналов : Front: L C R, Side: L R, LFE
Частота : 48,0 КГц
Частота кадров : 31,250 кадров/сек (1536 SPF)
Битовая глубина : 16 бит
Метод сжатия : С потерями
Размер потока : 115 Мбайт (6%)
Заголовок : MVO AlexFilm @DD5.1 AC3, 384 Kbps, 48.0 KHz, 6 ch
Язык : Russian
ServiceKind/String : Complete Main
Default : Нет
Forced : Нет

Аудио #4
Идентификатор : 8
Формат : AC-3
Формат/Информация : Audio Coding 3
Идентификатор кодека : A_AC3
Продолжительность : 41 м. 55 с.
Вид битрейта : Постоянный
Битрейт : 384 Кбит/сек
Каналы : 6 каналов
Расположение каналов : Front: L C R, Side: L R, LFE
Частота : 48,0 КГц
Частота кадров : 31,250 кадров/сек (1536 SPF)
Битовая глубина : 16 бит
Метод сжатия : С потерями
Размер потока : 115 Мбайт (6%)
Заголовок : MVO Jaskier @DD5.1 AC3, 384 Kbps, 48.0 KHz, 6 ch
Язык : Russian
ServiceKind/String : Complete Main
Default : Нет
Forced : Нет

Аудио #5
Идентификатор : 9
Формат : AC-3
Формат/Информация : Audio Coding 3
Идентификатор кодека : A_AC3
Продолжительность : 41 м. 55 с.
Вид битрейта : Постоянный
Битрейт : 384 Кбит/сек
Каналы : 6 каналов
Расположение каналов : Front: L C R, Side: L R, LFE
Частота : 48,0 КГц
Частота кадров : 31,250 кадров/сек (1536 SPF)
Битовая глубина : 16 бит
Метод сжатия : С потерями
Размер потока : 115 Мбайт (6%)
Заголовок : MVO Baibako @DD5.1 AC3, 384 Kbps, 48.0 KHz, 6 ch
Язык : Russian
ServiceKind/String : Complete Main
Default : Нет
Forced : Нет

Аудио #6
Идентификатор : 10
Формат : AC-3
Формат/Информация : Audio Coding 3
Идентификатор кодека : A_AC3
Продолжительность : 41 м. 54 с.
Вид битрейта : Постоянный
Битрейт : 384 Кбит/сек
Каналы : 6 каналов
Расположение каналов : Front: L C R, Side: L R, LFE
Частота : 48,0 КГц
Частота кадров : 31,250 кадров/сек (1536 SPF)
Битовая глубина : 16 бит
Метод сжатия : С потерями
Размер потока : 115 Мбайт (6%)
Заголовок : MVO OMSKBIRD @DD5.1 AC3, 384 Kbps, 48.0 KHz, 6 ch
Язык : Russian
ServiceKind/String : Complete Main
Default : Нет
Forced : Нет

Аудио #7
Идентификатор : 11
Формат : AC-3
Формат/Информация : Audio Coding 3
Идентификатор кодека : A_AC3
Продолжительность : 41 м. 55 с.
Вид битрейта : Постоянный
Битрейт : 640 Кбит/сек
Каналы : 6 каналов
Расположение каналов : Front: L C R, Side: L R, LFE
Частота : 48,0 КГц
Частота кадров : 31,250 кадров/сек (1536 SPF)
Битовая глубина : 16 бит
Метод сжатия : С потерями
Размер потока : 192 Мбайт (10%)
Заголовок : Original@DD5.1 AC3 ,640 Kbps, 48.0 KHz, 6 ch
Язык : English
ServiceKind/String : Complete Main
Default : Нет
Forced : Нет

Аудио #8
Идентификатор : 12
Формат : AC-3
Формат/Информация : Audio Coding 3
Идентификатор кодека : A_AC3
Продолжительность : 41 м. 55 с.
Вид битрейта : Постоянный
Битрейт : 384 Кбит/сек
Каналы : 6 каналов
Расположение каналов : Front: L C R, Side: L R, LFE
Частота : 48,0 КГц
Частота кадров : 31,250 кадров/сек (1536 SPF)
Битовая глубина : 16 бит
Метод сжатия : С потерями
Размер потока : 115 Мбайт (6%)
Заголовок : MVO NewStudio @DD5.1 AC3, 384 Kbps, 48.0 KHz, 6 ch
Язык : Russian
ServiceKind/String : Complete Main
Default : Нет
Forced : Нет

Текст #1
Идентификатор : 2
Формат : UTF-8
Идентификатор кодека : S_TEXT/UTF8
Идентификатор кодека/Информация : UTF-8 Plain Text
Продолжительность : 41 м. 4 с.
Битрейт : 72 бит/сек
ElementCount : 405
Размер потока : 21,7 Кбайт (0%)
Заголовок : Rus - FOCS Studio
Язык : Russian
Default : Да
Forced : Нет

Текст #2
Идентификатор : 3
Формат : UTF-8
Идентификатор кодека : S_TEXT/UTF8
Идентификатор кодека/Информация : UTF-8 Plain Text
Продолжительность : 40 м. 28 с.
Битрейт : 41 бит/сек
ElementCount : 407
Размер потока : 12,3 Кбайт (0%)
Заголовок : Original
Язык : English
Default : Нет
Forced : Нет

Текст #3
Идентификатор : 4
Формат : UTF-8
Идентификатор кодека : S_TEXT/UTF8
Идентификатор кодека/Информация : UTF-8 Plain Text
Продолжительность : 40 м. 28 с.
Битрейт : 45 бит/сек
ElementCount : 472
Размер потока : 13,6 Кбайт (0%)
Заголовок : Original - SDH
Язык : English
Default : Нет
Forced : Нет

Меню
00:00:00.000 : en:Глава 01 / en:Глава 01 / en:Глава 01 / en:Глава 01 / en:Глава 01 / en:Глава 01 / en:Глава 01 / en:Глава 01 / en:Глава 01 / en:Глава 01 / en:Глава 01 / en:Глава 01








Сезон 3

Внимание! Раздача пополняется по мере выхода новых серий!


Раздача ведётся путём добавления новых серий; при каждом добавлении создётся новый торрент.
Чтобы начать докачку новой серии, пользователям необходимо сделать следующее:
1. остановить скачивание,
2. удалить старый торрент у себя из клиента (старые серии удалять не надо),
3. скачать новый торрент и запустить его у себя в клиенте вместо старого, при этом указать клиенту путь в старую папку, куда и должно происходить скачивание новых серий.

Ваш клиент при этом должен произвести хеширование (проверку) старой папки (если не производит сам - помогите ему сделать это), и будет докачивать только те серии которых у вас ещё нет. Старые серии при этом не удаляются, а продолжают раздаваться!

Eсли вы уже удалили старые серии, то предотвратить повторную закачку старых серий можно, отжав галочку в соответсвующих местах при запуске нового торрента. По возможности, желательно не удалять старые серии как можно дольше, чтобы релизёр не столько продолжал раздавать старые серии, а смог сконцентрироваться на новых.

Совет для тех, кто не хочет ждать перехеширования:
Создайте ещё одну папку рядом с папкой сериала (рядом, а не в ней!!!). Каждую новую серию после удачной загрузки копируйте в новую папку так чтобы ваша основная папка всегда была пуста. Когда ваш новый торрент предложит вам закачать все файлы, выберете только последнюю. Для сидирования же укажите адрес новой папки.

Как закачать отдельный файл из торрента или докачать ранее пропущенные файлы торрента!

1. Открыть торрент
2. Снять галки с тех файлов торрента, которые мы не хотим закачивать. Оставляем только на нужных нам файлах (файле).
3. Нажать О.К.

В клиенте utorrent

Инструкция

1) Открыть торрент


2) Снять галки с тех файлов торрента, которые мы не хотим закачивать:

* либо вручную, снимая с каждого файла галку( скрин №1)
* либо, нажав кнопку "Снять метки (Select None)", сняв сразу со всех файлов(скрин №2)
№1

№2

Оставляем только на нужных нам файлах (файле).

3)Нажать О.К











Внимание!!! 12.07. 2018. РАЗДАЧА ОБНОВЛЕНА. ДОБАВЛЕНА 3СЕРИЯ , ДОБАВЛЕНА ЗВУКОВАЯ ДОРОЖКА ОТ NewStudio . ОБНОВИТЕ ТОРЕНТ ФАЙЛ. ПРИЯТНОГО ПРОСМОТРА .







Релиз от: Nikolai.Baranov & PIRATIYA







Время раздачи : 24/7


_________________

Легко быть оптимистом, когда судьба не валит с ног тяжелыми ударами, а лишь иногда легонько шлепает по заднице.


Вернуться к началу
 Профиль Отправить личное сообщение  
 
   Похожие торренты   Автор   Торрент   Размер 
В этой теме нет новых непрочитанных сообщений. Проповедник (Пастырь) / Preacher [2018](Сезон 3, Серия 1-3 из 13 )( Эван Голдберг, Сет Роген, Майкл Словис) [Фэнтези, драма, детектив, приключения, WEB-DLRip][1080p][ Lostfilm+AlexFilm+Jaskier+ ProfixMedia+BaibaKО+OMSKBIRD+Eng]+[Subs ENG+Ru

Враг Нароода

1 | 0

10.55 ГБ

В этой теме нет новых непрочитанных сообщений. Проповедник / Preacher [2017] (Сезон 2, Серия 1-13 из 13) (Сет Роген) [Фэнтези, драма,, приключения , экранизация , WEB-DLRip] [720p] [DD5.1] [MVO] [LostFilm,AlexFilm,Jaskier,NewStudiо,OMSKBIRD,HamsterStudio,BaibaKo,Kubik V Kube, Eng + Subs

Враг Нароода

0 | 0

25.81 ГБ

В этой теме нет новых непрочитанных сообщений. Проповедник / Preacher [2017] (Сезон 2, Серия 1-13 из 13) (Сет Роген) [Фэнтези, драма,, приключения , экранизация , WEB-DLRip] [1080] [DD5.1] [MVO] [LostFilm,AlexFilm,Jaskier,NewStudiо,OMSKBIRD,HamsterStudio,BaibaKo,Kubik V Kube, Eng + Subs

Враг Нароода

0 | 0

45.07 ГБ

В этой теме нет новых непрочитанных сообщений. Проповедник / Preacher (Сезон 1, Серия 1-10 из 10) (Сет Роген) [2016, Фэнтези, драма, детектив, приключения , WEB-DLRip 1080p ] [DD5.1] [MVO] [AlexFilm,,LostFilm,NewStudiо,BaibaKo,FocusStudiо,Kubik V Kube,Kravec, English + Subs Rus,ENG]

Враг Нароода

0 | 0

28.25 ГБ

В этой теме нет новых непрочитанных сообщений. Затерянные в космосе / Lost in Space [2018] (Сезон 1 , Серия 1-10 из 10) (Тим Соутэм, Дебора Чоу) [Фантастика , WEB-DLRip][1080p][DD5.1][LostFilm+AlexFilm+BaibaKО+IdeaFilm+ProfixMedia+Eng]+[Subs ENG+Rus]

Враг Нароода

3 | 0

37.11 ГБ

В этой теме нет новых непрочитанных сообщений. Кондор / Condor [2018](Сезон 1, Серия 1-4 из 10 )( Эндрю МакКарти, Лоуренс Триллинг) [Триллер, WEB-DLRip][1080p][ Lostfilm+NewStudiо+Jaskier+ ProfixMedia+BaibaKО+Kubik V Kube +Eng]+[Subs ENG]

Враг Нароода

2 | 0

11.81 ГБ

В этой теме нет новых непрочитанных сообщений. Террор / The Terror [2018] (Сезон 1 , Серия 1-10 из 10) (Милантс, Эдвард Бергер) [Ужасы, драма , WEB-DLRip][1080p][LostFilm+NewStudiо+AlexFilm+ProfixMedia+Kubik V Kube+Jaskier+Eng]+[Subs ENG+Rus]

Враг Нароода

1 | 3

38.09 ГБ


Начать новую тему Ответить на тему  [ 1 сообщение ] 




Для Мосгорсуда, Роскомнадзора и рекламодателей:: mosgorsud-torrent[собачка]yandex.ru
cron