Торрент файл
скачать торрент магнет ссылка Добавлен: 14 июн 2018, 17:23
Размер: 11.19 ГБ
Сидеров: 0
Личеров: 0
Статус: (salma3)
Автор

СообщениеДобавлено: 14 июн 2018, 17:23 

В сети
Супермодератор
Аватара пользователя
Дата регистрации:
15 фев 2012, 16:44
Возраст: 29
Спасибо: 7328 / 2147
Сообщения: 73381
Год выхода: 2018
Жанр: Драма, криминал
Режиссер: Эшли Вэй, Антуан Фукуа, Т.Дж. Скотт

В ролях: Кэм Жиганде, Джереми Систо, Рэй Уинстон, Джудит Шекони, Хлоя Ист, Одри Мари Андерсон, Элла Томас, Константин Лавиш, Дональд Сазерленд, Рэймонд Дж. Бэрри и другие.

О фильме:
В центре истории — единокровные братья Джейк и Фредди, сыновья Айзека Грина, патриарха семьи-владелицы компании G&G Diamonds, занимающейся торговлей алмазами, в том числе и на чёрном рынке Лос-Анджелеса. Когда Фредди по случайности убивает известного торговца бриллиантами, Джейку предстоит спасти от верной смерти брата и семейный бизнес. На пути к цели главному герою предстоит столкнуться с головорезами, грязными сделками, поддельными сертификатами и сотрудниками ФБР.



Страна: США, AT&T, Entertainment One, Fuqua Films
Продолжительность: ~ 00:49:00 серия
Перевод: Любительский (многоголосый закадровый) OmskBird

Файл
Кодек: MPEG-4 AVC/х.264
Качество: WEBRip 720p
Видео: 1280x720 (16:9), 23.976 fps, ~2900 kbps, 0.131 bit/pixel
Звук:
Аудио rus: AC3, 48 kHz, 2 ch, 192 Kbps | OmskBird

Реклама: присутствует

Семпл

General
Unique ID : 174172072795215522475049534541171912998 (0x8308523026B8E72AE53DDA675275F126)
Complete name : G:FilmsIce.S02.720p.WEBRip.OmskBirdIce.S02E01.720p.WEBRip.OmskBird.mkv
Format : Matroska
Format version : Version 4 / Version 2
File size : 1.09 GiB
Duration : 49mn 42s
Overall bit rate : 3 151 Kbps
Encoded date : UTC 2018-03-31 09:31:19
Writing application : mkvmerge v21.0.0 ('Tardigrades Will Inherit The Earth') 64-bit
Writing library : libebml v1.3.5 + libmatroska v1.4.8
Cover : Yes
Attachments : small_cover.jpg / small_cover_land.jpg / cover.jpg / cover_land.jpg

Video
ID : 1
Format : AVC
Format/Info : Advanced Video Codec
Format profile : Main@L3.2
Format settings, CABAC : Yes
Format settings, ReFrames : 3 frames
Codec ID : V_MPEG4/ISO/AVC
Duration : 49mn 42s
Bit rate : 2 896 Kbps
Width : 1 280 pixels
Height : 720 pixels
Display aspect ratio : 16:9
Frame rate mode : Constant
Frame rate : 23.976 (24000/1001) fps
Standard : PAL
Color space : YUV
Chroma subsampling : 4:2:0
Bit depth : 8 bits
Scan type : Progressive
Bits/(Pixel*Frame) : 0.131
Stream size : 1.01 GiB (92%)
Language : English
Default : Yes
Forced : No
Color range : Limited
Color primaries : BT.709
Transfer characteristics : BT.709
Matrix coefficients : BT.709

Audio
ID : 2
Format : AC-3
Format/Info : Audio Coding 3
Mode extension : CM (complete main)
Format settings, Endianness : Big
Codec ID : A_AC3
Duration : 49mn 42s
Bit rate mode : Constant
Bit rate : 192 Kbps
Channel(s) : 2 channels
Channel positions : Front: L R
Sampling rate : 48.0 KHz
Frame rate : 31.250 fps (1536 spf)
Compression mode : Lossy
Stream size : 68.3 MiB (6%)
Title : OmskBird
Language : Russian
Default : Yes
Forced : No


Внимание! Раздача ведётся путём добавления новых серий; при каждом добавлении создётся новый торрент. Чтобы начать докачку новой серии, пользователям необходимо сделать следующее:
Остановить скачивание.
Удалить старый торрент у себя из клиента (старые серии удалять не надо).
Скачать новый торрент и запустить его у себя в клиенте вместо старого, при этом указать клиенту путь в старую папку куда и должно происходить скачивание новых серий.
Ваш клиент при этом должен произвести хеширование (проверку) старой папки (если не производит сам - помогите ему сделать это), и будет докачивать только те серии которых у вас ещё нет. Старые серии при этом не удаляются, а продолжают раздаваться!
Eсли вы уже удалили старые серии, то предотвратить повторную закачку старых серий можно, отжав галочку в соответсвующих местах при запуске нового торрента. По возможности, желательно не удалять старые серии как можно дольше чтобы релизёр не столько продолжал раздавать старые серии, а смог сконцентрироваться на новых.

Релиз от: OmskBird


_________________
Проголосуй за трекер Открытый торрент трекер - RUS-MEDIA.ORG

Проголосуй Открытый торрент трекер - RUS-MEDIA.ORG


Вернуться к началу
 Профиль Отправить личное сообщение  
 
   Похожие торренты   Автор   Торрент   Размер 
В этой теме нет новых непрочитанных сообщений. Лед / Ice [S02] [Драма, криминал, 2018] WEBRip, Mvo [OmskBird]

salma3

0 | 0

7.05 ГБ

В этой теме нет новых непрочитанных сообщений. Колония / Colony [S03] [Фантастика, 2018] WEBRip 720p, Mvo [OmskBird]

salma3

0 | 0

12.2 ГБ

В этой теме нет новых непрочитанных сообщений. Убивая Еву / Killing Eve [S01] [триллер, комедия, 2018] WEBRip 720p, Mvo [OmskBird]

salma3

19 | 61

7.52 ГБ

В этой теме нет новых непрочитанных сообщений. Аванпост / The Outpost [01x01 из 10] [фэнтези, приключения, 2018] WEBRip 720p, Mvo [OMSKBIRD]

salma3

0 | 0

971.02 МБ

В этой теме нет новых непрочитанных сообщений. Стрелок / Shooter [S02] [Боевик, Драма, 2017] WEBRip 720p, Mvo [OmskBird]

salma3

5 | 6

7.51 ГБ

В этой теме нет новых непрочитанных сообщений. Мгла / The Mist [S01] [Ужасы, драма, триллер, 2017] WEBRip 720p, Mvo [OmskBird]

salma3

9 | 10

9.49 ГБ

В этой теме нет новых непрочитанных сообщений. Человек в высоком замке / The Man in the High Castle [02x01-02 из 10] (фантастика, триллер, драма, 2016) WEBRip 720p | OMSKBIRD

marya111

89 | 15

2.55 ГБ


Начать новую тему Ответить на тему  [ 1 сообщение ] 




Для Мосгорсуда, Роскомнадзора и рекламодателей:: mosgorsud-torrent[собачка]yandex.ru
cron