Торрент файл
скачать торрент магнет ссылка Добавлен: 30 дек 2017, 14:45
Размер: 37.77 ГБ
Сидеров: 9
Личеров: 3
Статус: (salma3)
Автор

СообщениеДобавлено: 30 дек 2017, 14:45 

Не в сети
Супермодератор
Аватара пользователя
Дата регистрации:
15 фев 2012, 16:44
Возраст: 29
Спасибо: 7328 / 2147
Сообщения: 73524
Год выпуска: 1998
Страна: США
Жанр: Комедия
Продолжительность: ~ 22 мин.

Перевод: Профессиональный (двухголосый закадровый) Студия "Кипарис" по заказу РЕН ТВ
Перевод 2: Профессиональный (двухголосый закадровый) SET Россия

Режиссёр: Роб Шиллер, Памела Фрайман
В ролях: Кевин Джеймс, Леа Ремини, Джерри Стиллер, Виктор Уильямс, Пэттон Освальт, Гари Валентайн, Николь Салливан, Ларри Романо, Меррин Данги, Муки Баркер и др.

Описание: В центре событий — молодая семейная пара из нью-йоркского района Квинс, где селятся «синие воротнички». Добродушный Даг Хеффернан, занимающийся доставкой посылок, и его жена-красавица Керри, судебный секретарь, искренне любят друг друга. Они живут в скромном доме, который делят с отцом Керри, эксцентричным Артуром Спунером, вдовцом и погорельцем. Еще есть друзья Дага — Дикон Палмер и Спенс Ольчин — и его кузен Дэнни Хеффернан, отличающиеся грубоватым юмором.



Релиз: fractal_avenue

Качество: BDRip 1080p
Контейнер: MKV
Видео: MPEG-4 AVC, 1920x1080, 16:9, 23,976, ~8400 kbps
Аудио: Русский, 48 kHz, AC-3, 192 kbps, 2 ch (РЕН ТВ, кроме серий 15, 16, 24)
Аудио 2: Русский, 48 kHz, AC-3, 192 kbps, 2 ch (SET Россия)
Аудио 3: Английский, DTS, Stereo, 48khz, 768 kbps
Субтитры: Отсутствуют

Format : Matroska
Format version : Version 2
File size : 1.52 GiB
Duration : 22mn 40s
Overall bit rate : 9 569 Kbps
Encoded date : UTC 2017-05-07 02:23:54
Writing application : mkvmerge v6.5.0 ('Isn't she lovely') built on Oct 20 2013 12:50:05
Writing library : libebml v1.3.0 + libmatroska v1.4.1
DURATION : 00:22:34.987000000
NUMBER_OF_FRAMES : 127030
NUMBER_OF_BYTES : 130078720
_STATISTICS_WRITING_APP : mkvmerge v7.7.0 ('Six Voices') 32bit built on Feb 28 2015 23:23:00
_STATISTICS_WRITING_DATE_UT : 2015-03-29 10:09:19
_STATISTICS_TAGS : BPS DURATION NUMBER_OF_FRAMES NUMBER_OF_BYTES

Video
ID : 1
Format : AVC
Format/Info : Advanced Video Codec
Format profile : High@L4.1
Format settings, CABAC : Yes
Format settings, ReFrames : 4 frames
Codec ID : V_MPEG4/ISO/AVC
Duration : 22mn 40s
Bit rate : 8 453 Kbps
Width : 1 920 pixels
Height : 1 080 pixels
Display aspect ratio : 16:9
Frame rate mode : Constant
Frame rate : 23.976 fps
Color space : YUV
Chroma subsampling : 4:2:0
Bit depth : 8 bits
Scan type : Progressive
Bits/(Pixel*Frame) : 0.170
Stream size : 1.30 GiB (86%)
Writing library : x264 core 146 r2538kMod 121396c
Encoding settings : cabac=1 / ref=4 / deblock=1:0:0 / analyse=0x3:0x113 / me=umh / subme=8 / psy=1 / fade_compensate=0.00 / psy_rd=1.00:0.00 / mixed_ref=1 / me_range=16 / chroma_me=1 / trellis=1 / 8x8dct=1 / cqm=0 / deadzone=21,11 / fast_pskip=1 / chroma_qp_offset=-2 / threads=12 / lookahead_threads=2 / sliced_threads=0 / nr=0 / decimate=1 / interlaced=0 / bluray_compat=0 / constrained_intra=0 / fgo=0 / bframes=3 / b_pyramid=2 / b_adapt=2 / b_bias=0 / direct=3 / weightb=1 / open_gop=0 / weightp=2 / keyint=240 / keyint_min=24 / scenecut=40 / intra_refresh=0 / rc_lookahead=50 / rc=2pass / mbtree=1 / bitrate=8453 / ratetol=1.0 / qcomp=0.60 / qpmin=0 / qpmax=69 / qpstep=4 / cplxblur=20.0 / qblur=0.5 / ip_ratio=1.40 / aq=1:1.00
Language : English
Default : Yes
Forced : No
DURATION : 00:22:34.979000000
NUMBER_OF_FRAMES : 32487
NUMBER_OF_BYTES : 1431529958
_STATISTICS_WRITING_APP : mkvmerge v7.7.0 ('Six Voices') 32bit built on Feb 28 2015 23:23:00
_STATISTICS_WRITING_DATE_UT : 2015-03-29 10:09:19
_STATISTICS_TAGS : BPS DURATION NUMBER_OF_FRAMES NUMBER_OF_BYTES

Audio #1
ID : 2
Format : AC-3
Format/Info : Audio Coding 3
Mode extension : CM (complete main)
Format settings, Endianness : Big
Codec ID : A_AC3
Duration : 22mn 40s
Bit rate mode : Constant
Bit rate : 192 Kbps
Channel(s) : 2 channels
Channel positions : Front: L R
Sampling rate : 48.0 KHz
Compression mode : Lossy
Stream size : 31.1 MiB (2%)
Title : ren-tv
Language : Russian
Default : No
Forced : No

Audio #2
ID : 3
Format : AC-3
Format/Info : Audio Coding 3
Mode extension : CM (complete main)
Format settings, Endianness : Big
Codec ID : A_AC3
Duration : 22mn 40s
Bit rate mode : Constant
Bit rate : 192 Kbps
Channel(s) : 2 channels
Channel positions : Front: L R
Sampling rate : 48.0 KHz
Compression mode : Lossy
Stream size : 31.1 MiB (2%)
Title : set
Language : Russian
Default : No
Forced : No

Audio #3
ID : 4
Format : DTS
Format/Info : Digital Theater Systems
Mode : 16
Format settings, Endianness : Big
Codec ID : A_DTS
Duration : 22mn 40s
Bit rate mode : Constant
Bit rate : 768 Kbps
Channel(s) : 2 channels
Channel positions : Front: L R
Sampling rate : 48.0 KHz
Bit depth : 24 bits
Compression mode : Lossy
Stream size : 125 MiB (8%)
Language : English
Default : Yes
Forced : No



_________________
Проголосуй за трекер Открытый торрент трекер - RUS-MEDIA.ORG

Проголосуй Открытый торрент трекер - RUS-MEDIA.ORG


Вернуться к началу
 Профиль Отправить личное сообщение  
 
   Похожие торренты   Автор   Торрент   Размер 
В этой теме нет новых непрочитанных сообщений. Король Ральф / King Ralph [мелодрама, комедия, 1991] BDRip 1080p, Mvo

salma3

27 | 2

9.23 ГБ

В этой теме нет новых непрочитанных сообщений. Король комедии / The King of Comedy [драма, комедия, 1982] BDRip 1080p, Mvo+Dvo+Avo+Sub

salma3

43 | 43

11.44 ГБ

В этой теме нет новых непрочитанных сообщений. Девушка-король / The Girl King Драма, мелодрама, биография, история[, 2015] BDRip 1080p, Avo

salma3

27 | 5

10.77 ГБ

В этой теме нет новых непрочитанных сообщений. Король Ральф / King Ralph [мелодрама, комедия, 1991] BDRip 720p, Mvo

salma3

0 | 0

7.86 ГБ

В этой теме нет новых непрочитанных сообщений. Король-рыбак / The Fisher King [фэнтези, драма, комедия, 1991] BDRip 720p, Dub+Mvo+Dvo+Avo+Sub

salma3

118 | 37

7.81 ГБ

В этой теме нет новых непрочитанных сообщений. Аладдин и король разбойников / Aladdin and the King of Thieves [мультфильм, комедия, приключения, 1996] BDRip 720p, Dub

salma3

0 | 164

2.58 ГБ

В этой теме нет новых непрочитанных сообщений. Слепой король / The Blind King [ужасы, 2016] BDRip 720p, Mvo

salma3

101 | 40

3.46 ГБ


Начать новую тему Ответить на тему  [ 1 сообщение ] 




Для Мосгорсуда, Роскомнадзора и рекламодателей:: mosgorsud-torrent[собачка]yandex.ru
cron